<?xml version="1.0" standalone="no"?>
<!DOCTYPE svg PUBLIC "-//W3C//DTD SVG 1.1//EN" "http://www.w3.org/Graphics/SVG/1.1/DTD/svg11.dtd" >
<svg xmlns="http://www.w3.org/2000/svg">
<metadata></metadata>
<defs>
<font id="resamitzbold" horiz-adv-x="1433" >
<font-face units-per-em="2048" ascent="1638" descent="-410" />
<missing-glyph horiz-adv-x="737" />
<glyph horiz-adv-x="0" />
<glyph horiz-adv-x="682" />
<glyph unicode=" "  horiz-adv-x="737" />
<glyph unicode="&#x09;" horiz-adv-x="737" />
<glyph unicode="&#xa0;" horiz-adv-x="737" />
<glyph unicode="!" horiz-adv-x="581" d="M197 0v166h188v-166h-188zM203 1044v451h176v-451l-17 -634h-143z" />
<glyph unicode="&#x22;" horiz-adv-x="567" d="M66 1356v119h172v-119l-39 -266h-95zM330 1356v119h172v-119l-39 -266h-94z" />
<glyph unicode="#" horiz-adv-x="1224" d="M131 444v111h240l16 283h-235v110h241l17 279h106l-16 -279h254l16 279h107l-17 -279h234v-110h-240l-16 -283h235v-111h-242l-16 -278h-106l16 278h-254l-16 -278h-107l16 278h-233zM477 555h254l17 283h-254z" />
<glyph unicode="$" horiz-adv-x="1378" d="M123 258v191q90 -110 217 -176.5t270 -79.5v510q-64 18 -111.5 34.5t-101.5 39.5t-91.5 50t-70 61t-49 78t-16.5 95q0 126 122.5 212.5t317.5 100.5v182h123v-181q231 -13 426 -144v-170q-222 163 -426 180v-409q57 -15 95 -26.5t91 -29.5t89.5 -36t78.5 -41.5 t69.5 -51.5t51.5 -61.5t35.5 -75t11.5 -88.5q0 -149 -146 -250t-376 -113v-182h-123v183q-135 11 -262.5 64t-224.5 134zM328 1061q0 -29 15 -54.5t38.5 -44.5t61.5 -37t76 -31t91 -28v374q-126 -11 -204 -60t-78 -119zM733 192q162 11 263.5 74.5t101.5 155.5 q0 39 -20.5 72.5t-50.5 57t-83 46.5t-97 37t-114 34v-477z" />
<glyph unicode="%" horiz-adv-x="1572" d="M92 1135q0 134 95 228.5t229 94.5t228.5 -94.5t94.5 -228.5t-94.5 -228t-228.5 -94t-229 94t-95 228zM137 206l1204 1122l95 -101l-1204 -1121zM219 1135q0 -85 58 -144t139 -59t138.5 59t57.5 144t-57.5 144.5t-138.5 59.5t-139 -59.5t-58 -144.5zM834 297 q0 134 94.5 229t228.5 95t229 -95t95 -229t-95 -228t-229 -94t-228.5 94t-94.5 228zM961 297q0 -85 57.5 -144t138.5 -59t139 59t58 144t-58 145t-139 60t-138.5 -60t-57.5 -145z" />
<glyph unicode="&#x26;" horiz-adv-x="1583" d="M88 421q0 140 113.5 239.5t274.5 99.5q40 0 89 -18q-133 190 -133 364q0 125 93.5 214t224.5 89q124 0 211.5 -79.5t87.5 -192.5q0 -49 -40 -85t-96 -38v123q0 60 -48 102.5t-115 42.5q-72 0 -123.5 -51.5t-51.5 -124.5q0 -65 20 -126.5t64.5 -126t82 -108.5t105.5 -117 l311 -334q138 132 138 308q0 64 -42 109t-101 45h-125q2 52 39 89.5t86 37.5q117 0 200 -82.5t83 -198.5q0 -115 -48.5 -220t-135.5 -189q2 -2 7 -8t8 -9q48 -53 81 -53h155q0 -51 -37 -87t-90 -36h-49q-90 0 -173 88l-16 17q-188 -117 -423 -117q-170 0 -314.5 58 t-228.5 157.5t-84 217.5zM248 421q0 -80 62.5 -147.5t170 -107t234.5 -39.5q179 0 326 82l-307 329q-87 91 -254 91q-96 0 -164 -61t-68 -147z" />
<glyph unicode="'" horiz-adv-x="352" d="M88 1356v119h176v-119l-39 -266h-98z" />
<glyph unicode="(" horiz-adv-x="641" d="M119 635q0 530 356 962h127q-164 -201 -237.5 -438.5t-73.5 -523.5t73.5 -524t237.5 -439h-127q-356 432 -356 963z" />
<glyph unicode=")" horiz-adv-x="641" d="M39 -328q164 201 237.5 439t73.5 524t-73.5 523.5t-237.5 438.5h127q356 -432 356 -962q0 -531 -356 -963h-127z" />
<glyph unicode="*" horiz-adv-x="794" d="M84 1235l43 114l211 -77l-2 223h123l-2 -223l210 77l44 -114l-220 -78l138 -182l-99 -74l-133 187l-133 -187l-98 74l137 182z" />
<glyph unicode="+" horiz-adv-x="1314" d="M121 627v147h463v463h147v-463h463v-147h-463v-463h-147v463h-463z" />
<glyph unicode="," horiz-adv-x="401" d="M106 0v166h189v-146l-66 -245h-100l59 225h-82z" />
<glyph unicode="-" horiz-adv-x="1081" d="M121 545v147h840v-147h-840z" />
<glyph unicode="." horiz-adv-x="401" d="M106 0v166h189v-166h-189z" />
<glyph unicode="/" horiz-adv-x="1275" d="M31 -41l1020 1516h192l-1020 -1516h-192z" />
<glyph unicode="0" horiz-adv-x="1650" d="M129 717q0 209 89 375.5t248.5 260t358.5 93.5t358.5 -93.5t249 -260t89.5 -375.5t-89.5 -375.5t-249 -260t-358.5 -93.5t-358.5 93.5t-248.5 260t-89 375.5zM309 717q0 -251 146 -414.5t370 -163.5t370 163.5t146 414.5t-146 414t-370 163t-370 -163t-146 -414z" />
<glyph unicode="1" horiz-adv-x="684" d="M104 1298v115l203 21h156v-1434h-176v1298h-183z" />
<glyph unicode="2" horiz-adv-x="1312" d="M111 0v82q0 57 11 110t28 96t47.5 86.5t57.5 75t71.5 67.5t76 58.5t85 54t84 48.5t85.5 46q54 29 80 43t72 41.5t68.5 44.5t53 44t45 50.5t25.5 53t11 60.5q0 101 -102 167t-259 66q-136 0 -268 -43t-223 -117v178q98 62 229 98t262 36q235 0 388 -109t153 -276 q0 -50 -13.5 -95t-32.5 -80t-56 -71.5t-67 -60.5t-83 -55.5t-86.5 -49.5t-94.5 -49q-60 -31 -91.5 -47.5t-85 -48t-84 -54.5t-70.5 -59t-62.5 -69.5t-42 -77.5t-27.5 -92h882v-152h-1067z" />
<glyph unicode="3" horiz-adv-x="1325" d="M127 147v177q84 -75 235.5 -132t292.5 -57q155 0 256 75t101 191q0 114 -89 196.5t-214 82.5h-256v143h235q111 0 190.5 71.5t79.5 170.5q0 101 -89.5 167t-227.5 66q-265 0 -469 -114v160q213 102 455 102q223 0 367.5 -107.5t144.5 -273.5q0 -95 -56 -176t-152 -131 q118 -51 189.5 -147t71.5 -210q0 -180 -155.5 -296.5t-395.5 -116.5q-132 0 -274.5 44.5t-239.5 114.5z" />
<glyph unicode="4" horiz-adv-x="1425" d="M125 295v33q38 112 93 208t137 215q60 87 93 140.5t72.5 133.5t57.5 161.5t18 171.5v76h180v-66q0 -79 -15 -155t-35.5 -133.5t-58.5 -125t-68 -111.5t-80 -112q-123 -169 -188 -301h679v574h168v-574h157v-135h-157v-295h-168v295h-885z" />
<glyph unicode="5" horiz-adv-x="1425" d="M156 153v179q84 -77 236 -137t292 -60q186 0 307 99t121 251q0 140 -117 239t-282 99q-289 0 -512 -120v731h999v-152h-848v-360q164 49 355 49q159 0 293.5 -65t213 -177t78.5 -244q0 -143 -79.5 -256.5t-222 -177t-320.5 -63.5q-130 0 -271.5 47t-242.5 118z" />
<glyph unicode="6" horiz-adv-x="1495" d="M129 717q0 148 52 283t139.5 232.5t209 155.5t254.5 58q129 0 259 -37.5t233 -100.5v-174q-96 73 -227.5 116.5t-264.5 43.5q-123 0 -229 -71t-171.5 -194t-73.5 -271q229 196 497 196q155 0 286.5 -64.5t208 -176t76.5 -242.5t-79.5 -242.5t-216.5 -176t-298 -64.5 q-188 0 -337.5 93.5t-233.5 260t-84 375.5zM317 601q30 -210 158 -340t309 -130q175 0 298.5 99.5t123.5 240.5q0 139 -117 237.5t-282 98.5q-278 0 -490 -206z" />
<glyph unicode="7" horiz-adv-x="1228" d="M63 1282v152h1111v-41q-25 -72 -73.5 -159.5t-85.5 -143.5t-111 -162q-48 -69 -72 -104t-67 -102t-65.5 -109t-52.5 -105t-45 -113t-26 -110t-11 -117v-168h-188v158q0 60 12 122.5t28.5 115t48 116t56.5 108t70 110t71.5 102.5t76.5 104q56 75 88.5 120t74 109t68.5 117 h-908z" />
<glyph unicode="8" horiz-adv-x="1523" d="M109 412q0 130 96 235t252 154q-107 48 -170.5 132t-63.5 183q0 89 72.5 165.5t196.5 120.5t270 44t270 -44t196 -120t72 -166q0 -99 -63 -183t-170 -132q156 -49 252 -154t96 -235q0 -121 -83.5 -218t-233 -151.5t-336.5 -54.5t-336.5 54.5t-233 151.5t-83.5 218z M289 412q0 -119 134 -196t339 -77t339 77t134 196q0 137 -133.5 226t-339.5 89t-339.5 -89t-133.5 -226zM403 1116q0 -112 101.5 -185t257.5 -73t257 73t101 185q0 79 -105 135t-253 56t-253.5 -56t-105.5 -135z" />
<glyph unicode="9" horiz-adv-x="1495" d="M117 963q0 131 79.5 242.5t216.5 176t298 64.5q188 0 337.5 -93.5t233.5 -260t84 -375.5q0 -148 -52 -283t-139.5 -232.5t-209 -155.5t-254.5 -58q-129 0 -259.5 37t-232.5 100v175q96 -73 227.5 -117t264.5 -44q123 0 229 71t171.5 194t73.5 271q-229 -196 -497 -196 q-155 0 -286.5 65t-208 176.5t-76.5 242.5zM289 963q0 -139 117 -237.5t282 -98.5q278 0 490 206q-30 210 -158 340t-309 130q-175 0 -298.5 -99.5t-123.5 -240.5z" />
<glyph unicode=":" horiz-adv-x="401" d="M106 0v166h189v-166h-189zM106 860v166h189v-166h-189z" />
<glyph unicode=";" horiz-adv-x="401" d="M106 0v166h189v-146l-66 -245h-100l59 225h-82zM106 860v166h189v-166h-189z" />
<glyph unicode="&#x3c;" horiz-adv-x="1044" d="M59 665v103l869 439v-157l-663 -333l663 -334v-156z" />
<glyph unicode="=" horiz-adv-x="1204" d="M127 434v148h950v-148h-950zM127 819v148h950v-148h-950z" />
<glyph unicode="&#x3e;" horiz-adv-x="1044" d="M117 227v156l663 334l-663 333v157l868 -439v-103z" />
<glyph unicode="?" horiz-adv-x="937" d="M41 1207v173q187 115 395 115q178 0 294 -81t116 -206q0 -179 -222 -357q-96 -77 -146 -139.5t-52 -140.5l-4 -161h-148v165q0 176 196 335q49 40 76.5 65t60.5 63.5t48 80t15 89.5q0 61 -66.5 100.5t-167.5 39.5q-218 0 -395 -141zM254 0v160h176v-160h-176z" />
<glyph unicode="@" horiz-adv-x="2250" d="M137 553q0 201 79 383.5t212.5 315t318 210.5t386.5 78q211 0 394 -72t313 -197.5t204 -303.5t74 -383q0 -214 -137 -365t-330 -151q-84 0 -152 36t-99 95q-132 -119 -306 -119q-135 0 -249.5 63.5t-181 172.5t-66.5 237q0 206 140.5 339.5t356.5 133.5q179 0 376 -90 q58 0 87 20l-41 -662v-7q0 -42 38.5 -72.5t92.5 -30.5q136 0 231.5 117.5t95.5 282.5q0 237 -108 426.5t-300 296t-433 106.5q-139 0 -269 -43.5t-234.5 -123t-183.5 -185t-122 -237t-43 -271.5t43 -271.5t122 -237t183.5 -185t234.5 -123t269 -43.5q397 0 644 233l76 -84 q-303 -276 -720 -276q-202 0 -386.5 78t-318 210.5t-212.5 315t-79 383.5zM745 553q0 -145 102.5 -247.5t246.5 -102.5q173 0 288 142l29 490q-153 66 -317 66q-152 0 -250.5 -98.5t-98.5 -249.5z" />
<glyph unicode="A" horiz-adv-x="1519" d="M14 0l635 1434h238l618 -1434h-182l-171 397h-792l-176 -397h-170zM422 537h670l-331 765z" />
<glyph unicode="B" horiz-adv-x="1683" d="M221 0v1434h873q169 0 289 -108.5t120 -260.5q0 -97 -51.5 -179t-138.5 -132q102 -53 162.5 -147.5t60.5 -205.5q0 -166 -129.5 -283.5t-312.5 -117.5h-873zM401 152h693q109 0 185.5 73t76.5 176q0 113 -76.5 194t-185.5 81h-693v-524zM401 827h693q95 0 162 70t67 168 q0 90 -67 153.5t-162 63.5h-693v-455z" />
<glyph unicode="C" horiz-adv-x="1603" d="M129 717q0 209 100 375.5t277.5 260t400.5 93.5q159 0 309.5 -43.5t260.5 -122.5v-182q-101 93 -253 144.5t-317 51.5q-260 0 -429 -163t-169 -414t169 -414.5t429 -163.5q164 0 316.5 52t253.5 145v-183q-109 -79 -260 -122t-310 -43q-223 0 -400.5 93.5t-277.5 260 t-100 375.5z" />
<glyph unicode="D" horiz-adv-x="1685" d="M221 0v1434h578q206 0 380 -96t275.5 -261t101.5 -360t-101.5 -360t-275.5 -261t-380 -96h-578zM401 152h398q118 0 224.5 44.5t184 120.5t123 180.5t45.5 219.5t-45.5 219.5t-123 180.5t-184 120.5t-224.5 44.5h-398v-1130z" />
<glyph unicode="E" horiz-adv-x="1458" d="M221 0v1434h1114v-152h-934v-487h811v-152h-811v-491h934v-152h-1114z" />
<glyph unicode="F" horiz-adv-x="1419" d="M221 0v1434h1104v-152h-924v-537h842v-151h-842v-594h-180z" />
<glyph unicode="G" horiz-adv-x="1693" d="M129 717q0 156 57 292t156.5 231.5t240.5 150.5t304 55q159 0 309 -43.5t260 -122.5v-178q-102 90 -254 141t-315 51q-251 0 -414.5 -163t-163.5 -414t163.5 -414.5t414.5 -163.5q129 0 254.5 35.5t228.5 99.5v369h-438v139h594v-375v-191q-274 -228 -639 -228 q-163 0 -304 55t-240.5 150.5t-156.5 231.5t-57 292z" />
<glyph unicode="H" horiz-adv-x="1679" d="M221 0v1434h180v-639h877v639h180v-1434h-180v643h-877v-643h-180z" />
<glyph unicode="I" horiz-adv-x="622" d="M221 0v1434h180v-1434h-180z" />
<glyph unicode="J" horiz-adv-x="1339" d="M106 111v165q208 -137 461 -137q168 0 287 103.5t119 249.5v794h-830v148h1010v-942q0 -137 -78.5 -253t-213.5 -183.5t-294 -67.5q-246 0 -461 123z" />
<glyph unicode="K" horiz-adv-x="1509" d="M221 0v1434h180v-639h278l568 639h199l-620 -699l640 -735h-213l-560 643h-292v-643h-180z" />
<glyph unicode="L" horiz-adv-x="1337" d="M221 0v1434h180v-1282h885v-152h-1065z" />
<glyph unicode="M" horiz-adv-x="2199" d="M221 0v1434h209l676 -910l678 910h194v-1434h-172v1214l-713 -950l-712 944v-1208h-160z" />
<glyph unicode="N" horiz-adv-x="1679" d="M221 0v1434h189l893 -1198v1198h155v-1434h-180l-901 1209v-1209h-156z" />
<glyph unicode="O" horiz-adv-x="1773" d="M129 717q0 148 60 283t161.5 232.5t242 155.5t294.5 58t294.5 -58t242 -155.5t161.5 -232.5t60 -283t-60 -283t-161.5 -232.5t-242 -155.5t-294.5 -58t-294.5 58t-242 155.5t-161.5 232.5t-60 283zM309 717q0 -157 77.5 -290t210.5 -210.5t290 -77.5t290 77.5t210 210.5 t77 290q0 118 -45.5 224.5t-123 184t-184 123t-224.5 45.5q-157 0 -290 -77t-210.5 -210t-77.5 -290z" />
<glyph unicode="P" horiz-adv-x="1662" d="M221 0v1434h783q150 0 277 -68.5t201 -186.5t74 -257t-74 -257t-201 -186.5t-277 -68.5h-603v-410h-180zM401 561h603q154 0 263 106t109 255t-109 254.5t-263 105.5h-603v-721z" />
<glyph unicode="Q" horiz-adv-x="1775" d="M129 717q0 148 60 283t161.5 232.5t242 155.5t294.5 58t294.5 -58t242 -155.5t161.5 -232.5t60 -283q0 -181 -86 -337.5t-233 -257.5l265 -245h-213l-187 172q-145 -61 -304 -61q-154 0 -294.5 58t-242 155.5t-161.5 232.5t-60 283zM309 717q0 -157 77.5 -290 t210.5 -210.5t290 -77.5q89 0 176 28l-193 177v199l334 -309q120 79 190 206.5t70 276.5q0 118 -45.5 224.5t-123 184t-184 123t-224.5 45.5q-157 0 -290 -77t-210.5 -210t-77.5 -290z" />
<glyph unicode="R" horiz-adv-x="1683" d="M221 0v1434h823q139 0 257 -63t186.5 -171.5t68.5 -236.5q0 -195 -147.5 -333t-355.5 -138h-9l539 -492h-238l-520 492h-424v-492h-180zM401 643h652q134 0 228.5 94t94.5 226t-97.5 225.5t-234.5 93.5h-643v-639z" />
<glyph unicode="S" horiz-adv-x="1501" d="M127 213v206q110 -127 273 -203.5t341 -76.5q201 0 332 70.5t131 179.5q0 30 -8.5 56t-29 48.5t-41 40t-58 35t-65 29.5t-77 27t-80 23.5t-86.5 23.5q-91 25 -140 39.5t-129 43t-124 58t-91.5 71t-69 96t-21.5 120.5q0 151 157.5 248.5t399.5 97.5q143 0 281.5 -43 t251.5 -121v-186q-101 89 -243.5 143.5t-289.5 54.5q-166 0 -273.5 -54.5t-107.5 -139.5q0 -33 14 -61.5t45 -51.5t63 -40.5t86 -35.5t94.5 -29.5t107.5 -28.5q60 -16 96.5 -26t94 -28t94.5 -33t85.5 -38.5t79.5 -46.5t64.5 -55t52 -67t31 -79t12.5 -93q0 -115 -82 -206 t-228 -142t-329 -51q-169 0 -330 60.5t-284 164.5z" />
<glyph unicode="T" horiz-adv-x="1445" d="M51 1286v148h1344v-148h-582v-1286h-180v1286h-582z" />
<glyph unicode="U" horiz-adv-x="1691" d="M174 627v807h180v-807q0 -132 66 -244.5t179.5 -178t246.5 -65.5t246.5 65.5t179 178t65.5 244.5v807h181v-807q0 -174 -90 -321t-245 -232.5t-337 -85.5t-337 85.5t-245 232.5t-90 321z" />
<glyph unicode="V" horiz-adv-x="1478" d="M4 1434h182l552 -1279l567 1279h170l-635 -1434h-217z" />
<glyph unicode="W" horiz-adv-x="2269" d="M12 1434h183l485 -1272l391 1200h154l376 -1197l484 1269h172l-547 -1434h-227l-342 1088l-355 -1088h-227z" />
<glyph unicode="X" horiz-adv-x="1413" d="M63 0l543 727l-522 707h209l417 -567l423 567h196l-521 -699l542 -735h-207l-439 595l-444 -595h-197z" />
<glyph unicode="Y" horiz-adv-x="1454" d="M10 1434h207l515 -699l521 699h191l-627 -841v-593h-180v585z" />
<glyph unicode="Z" horiz-adv-x="1388" d="M127 0v131l913 1151h-899v152h1116v-131l-912 -1151h923v-152h-1141z" />
<glyph unicode="[" horiz-adv-x="641" d="M207 -328v1925h371v-135h-203v-1655h203v-135h-371z" />
<glyph unicode="\" horiz-adv-x="1275" d="M31 1475h196l1016 -1516h-196z" />
<glyph unicode="]" horiz-adv-x="641" d="M63 -193h203v1655h-203v135h371v-1925h-371v135z" />
<glyph unicode="^" horiz-adv-x="917" d="M61 1085l287 365h221l287 -365h-143l-254 281l-254 -281h-144z" />
<glyph unicode="_" horiz-adv-x="1183" d="M66 -262h1052v-148h-1052v148z" />
<glyph unicode="`" horiz-adv-x="610" d="M63 1548h201l223 -286h-155z" />
<glyph unicode="a" horiz-adv-x="1323" d="M102 307q0 128 100 211.5t253 83.5h230l278 -33v168q0 105 -85 179.5t-206 74.5q-112 0 -236.5 -32.5t-210.5 -76.5l-8 132q99 46 217.5 75t231.5 29q128 0 237 -51t172.5 -139t63.5 -191v-737h-176v70q-203 -82 -404 -82q-189 0 -323 93.5t-134 225.5zM270 307 q0 -71 85 -121.5t204 -50.5q101 0 211 24t193 61v247h-508q-80 0 -132.5 -45t-52.5 -115z" />
<glyph unicode="b" horiz-adv-x="1439" d="M201 98v1397h176v-444q187 67 354 67q255 0 420.5 -159.5t165.5 -405.5q0 -153 -79.5 -283.5t-216.5 -206.5t-298 -76q-111 0 -229 28t-215 73q-21 10 -78 10zM377 201q180 -66 346 -66q173 0 295.5 122.5t122.5 295.5q0 182 -116 300t-294 118q-172 0 -354 -66v-704z " />
<glyph unicode="c" horiz-adv-x="1306" d="M125 553q0 162 80 291t223.5 201.5t323.5 72.5q217 0 417 -111v-157q-200 127 -415 127q-197 0 -325 -119.5t-128 -304.5q0 -184 129 -304t326 -120q213 0 413 127v-157q-200 -111 -417 -111q-180 0 -323.5 72.5t-223.5 201.5t-80 291z" />
<glyph unicode="d" horiz-adv-x="1445" d="M123 553q0 246 168 405.5t426 159.5q170 0 346 -61v438h176v-1495h-176v112q-151 -124 -346 -124q-161 0 -298 75.5t-216.5 206t-79.5 283.5zM299 553q0 -173 122.5 -295.5t295.5 -122.5q105 0 194.5 41t151.5 117v619q-170 59 -346 59q-181 0 -299.5 -118.5 t-118.5 -299.5z" />
<glyph unicode="e" horiz-adv-x="1404" d="M125 553q0 246 168 405.5t426 159.5q156 0 280.5 -59t194.5 -164t70 -236v-79l-54 -48h-909q8 -174 130.5 -285.5t307.5 -111.5q106 0 234 36.5t252 106.5v-157q-123 -63 -250.5 -98t-235.5 -35q-176 0 -316 72.5t-219 201.5t-79 291zM313 659h783q0 136 -106.5 224 t-270.5 88q-153 0 -263.5 -85.5t-142.5 -226.5z" />
<glyph unicode="f" horiz-adv-x="956" d="M66 903v129l204 8v189q0 121 104 199.5t265 78.5q142 0 266 -34v-154q-138 41 -270 41q-82 0 -135.5 -37t-53.5 -94v-189h424v-137h-424v-903h-176v903h-204z" />
<glyph unicode="g" horiz-adv-x="1441" d="M123 563q0 241 168 398t426 157q173 0 352 -63q1 9 2 26t2 25h166v-1094q0 -184 -144.5 -303t-367.5 -119q-110 0 -241 32.5t-230 78.5l8 148q84 -43 220 -77t247 -34q146 0 241 77.5t95 196.5v145q-152 -128 -350 -128q-161 0 -298 71.5t-216.5 194.5t-79.5 268z M299 563q0 -160 122.5 -273.5t295.5 -113.5q106 0 197 44.5t153 123.5v559q-183 68 -350 68q-181 0 -299.5 -115.5t-118.5 -292.5z" />
<glyph unicode="h" horiz-adv-x="1390" d="M205 0v1495h176v-460q200 83 403 83q175 0 298.5 -105.5t123.5 -254.5v-758h-176v758q0 88 -71 150.5t-171 62.5t-210.5 -26t-196.5 -64v-881h-176z" />
<glyph unicode="i" horiz-adv-x="581" d="M203 0v1106h176v-1106h-176zM203 1315v180h176v-180h-176z" />
<glyph unicode="j" horiz-adv-x="624" d="M-168 -227q142 -39 262 -39q65 0 106.5 32t41.5 82v1270h176v-1270q0 -112 -92.5 -185t-235.5 -73q-130 0 -258 35v148zM242 1315v180h176v-180h-176z" />
<glyph unicode="k" horiz-adv-x="1296" d="M207 0v1495h176v-866h219l424 477h195l-474 -535l496 -571h-209l-419 481h-232v-481h-176z" />
<glyph unicode="l" horiz-adv-x="589" d="M207 0v1495h176v-1495h-176z" />
<glyph unicode="m" horiz-adv-x="2070" d="M203 0v1106h172l3 -55q185 67 337 67q187 0 309 -111q237 111 444 111q173 0 295.5 -99.5t122.5 -240.5v-778h-176v778q0 80 -69.5 136.5t-167.5 56.5q-176 0 -366 -75q26 -57 26 -118v-778h-177v778q0 80 -69.5 136.5t-167.5 56.5q-159 0 -340 -65v-906h-176z" />
<glyph unicode="n" horiz-adv-x="1388" d="M203 0v1106h170l5 -71q202 83 404 83q184 0 303 -101.5t119 -258.5v-758h-176v758q0 88 -71 150.5t-171 62.5t-210.5 -26t-196.5 -64v-881h-176z" />
<glyph unicode="o" d="M123 553q0 153 79.5 283.5t216.5 206t298 75.5t298 -75.5t216.5 -206t79.5 -283.5t-79.5 -283.5t-216.5 -206t-298 -75.5t-298 75.5t-216.5 206t-79.5 283.5zM299 553q0 -173 122.5 -295.5t295.5 -122.5t295.5 122.5t122.5 295.5t-122.5 295.5t-295.5 122.5 t-295.5 -122.5t-122.5 -295.5z" />
<glyph unicode="p" horiz-adv-x="1445" d="M207 -410v1516h172l3 -53q183 65 347 65q258 0 426 -159.5t168 -405.5q0 -153 -81.5 -283.5t-218 -206t-294.5 -75.5q-195 0 -346 124v-522h-176zM383 293q62 -74 152.5 -116t193.5 -42q180 0 299 118.5t119 299.5t-118.5 299.5t-299.5 118.5q-169 0 -346 -63v-615z" />
<glyph unicode="q" horiz-adv-x="1445" d="M123 553q0 246 168 405.5t426 159.5q172 0 351 -63l7 51h164v-1516h-176v522q-151 -124 -346 -124q-161 0 -298 75.5t-216.5 206t-79.5 283.5zM299 553q0 -173 122.5 -295.5t295.5 -122.5q105 0 194.5 41t151.5 117v619q-170 59 -346 59q-181 0 -299.5 -118.5 t-118.5 -299.5z" />
<glyph unicode="r" horiz-adv-x="1007" d="M203 0v1106h168l7 -87q122 53 249.5 76t308.5 23l-16 -166q-64 11 -106 11q-223 0 -435 -97v-866h-176z" />
<glyph unicode="s" horiz-adv-x="1218" d="M109 163v206q80 -107 213.5 -170.5t277.5 -63.5q146 0 241 46.5t95 117.5q0 24 -10 45.5t-24 37.5t-41.5 32t-50.5 26.5t-63 23.5t-66.5 20t-73.5 20q-60 16 -94 25.5t-88.5 28.5t-86.5 36t-71.5 44t-61 56t-36.5 69.5t-15 86.5q0 117 126 192.5t320 75.5q242 0 418 -108 v-174q-167 135 -418 135q-119 0 -196.5 -34t-77.5 -87q0 -23 10 -43t33.5 -36.5t46 -29t63.5 -26t69.5 -21.5t79.5 -22q48 -13 75 -20.5t73.5 -22t74.5 -26.5t67 -31t63 -37t51 -44t41.5 -54t24.5 -63t10 -75q0 -136 -143.5 -223.5t-364.5 -87.5q-136 0 -266.5 46.5 t-224.5 128.5z" />
<glyph unicode="t" horiz-adv-x="1083" d="M182 307v1053l176 24v-278h592v-135h-592v-654q0 -76 84 -129t203 -53q168 0 326 117v-168q-161 -96 -326 -96q-191 0 -327 93.5t-136 225.5z" />
<glyph unicode="u" horiz-adv-x="1378" d="M184 348v758h176v-758q0 -88 79.5 -150.5t191.5 -62.5q179 0 368 71v900h177v-1106h-164l-10 60q-190 -72 -367 -72q-187 0 -319 105.5t-132 254.5z" />
<glyph unicode="v" horiz-adv-x="1212" d="M16 1106h181l411 -954l422 954h168l-489 -1106h-215z" />
<glyph unicode="w" horiz-adv-x="1945" d="M16 1106h174l393 -951l335 910h122l333 -910l394 951h162l-459 -1106h-213l-284 789l-287 -789h-213z" />
<glyph unicode="x" horiz-adv-x="1132" d="M45 0l420 563l-402 543h207l299 -404l301 404h195l-399 -535l421 -571h-204l-321 432l-322 -432h-195z" />
<glyph unicode="y" horiz-adv-x="1222" d="M18 1106h179l430 -954l405 954h166l-485 -1143q-37 -89 -37 -197q0 -96 33 -176h-166q-29 70 -29 174q0 120 33 199l48 113h-112z" />
<glyph unicode="z" horiz-adv-x="1161" d="M115 0v127l700 831h-686v148h911v-127l-700 -832h711v-147h-936z" />
<glyph unicode="{" horiz-adv-x="763" d="M127 586v98q84 0 143.5 63.5t59.5 153.5v387q0 128 108 218.5t262 90.5v-108q-84 0 -143 -59t-59 -142v-387q0 -85 -52.5 -156t-140.5 -110q88 -39 140.5 -110t52.5 -156v-387q0 -83 59 -142t143 -59v-109q-154 0 -262 91t-108 219v387q0 90 -59.5 153.5t-143.5 63.5z " />
<glyph unicode="|" horiz-adv-x="585" d="M207 -410v1926h172v-1926h-172z" />
<glyph unicode="}" horiz-adv-x="763" d="M63 -219q84 0 143.5 59t59.5 142v387q0 85 52.5 156t140.5 110q-88 39 -140.5 110t-52.5 156v387q0 83 -59.5 142t-143.5 59v108q154 0 262.5 -90.5t108.5 -218.5v-387q0 -90 59.5 -153.5t143.5 -63.5v-98q-84 0 -143.5 -63.5t-59.5 -153.5v-387q0 -128 -108.5 -219 t-262.5 -91v109z" />
<glyph unicode="~" horiz-adv-x="1081" d="M133 549v117q85 61 209 61q112 0 246 -49q113 -41 197 -41q98 0 163 51v-119q-84 -60 -205 -60q-111 0 -249 50q-110 40 -198 40q-99 0 -163 -50z" />
<glyph unicode="&#xa1;" horiz-adv-x="581" d="M197 940v166h188v-166h-188zM203 61l16 635h143l17 -635v-450h-176v450z" />
<glyph unicode="&#xa2;" horiz-adv-x="1296" d="M125 717q0 218 143 371t373 186v282h123v-274q212 -3 405 -111v-157q-196 124 -405 127v-848q209 3 405 127v-157q-193 -108 -405 -111v-275h-123v282q-230 33 -373 186.5t-143 371.5zM301 717q0 -156 93.5 -268t246.5 -144v824q-153 -32 -246.5 -144t-93.5 -268z" />
<glyph unicode="&#xa3;" horiz-adv-x="1302" d="M59 0v86q97 21 159.5 89.5t62.5 158.5v334h-172v139h172v291q0 144 135.5 246t326.5 102q169 0 330 -100v-158q-164 115 -330 115q-121 0 -205.5 -60t-84.5 -145v-291h366v-139h-366v-334q0 -108 -94 -191h620q114 0 223 58v-140q-119 -61 -282 -61h-861z" />
<glyph unicode="&#xa4;" horiz-adv-x="978" d="M98 950l107 107l136 -136q62 35 148 35q84 0 153 -43l134 138l109 -105l-134 -139q40 -69 40 -150q0 -80 -38 -148l128 -130l-108 -107l-127 130q-75 -46 -157 -46q-80 0 -150 40l-130 -128l-107 108l130 127q-44 71 -44 154q0 80 46 157zM307 657q0 -76 53 -129t129 -53 t129.5 53t53.5 129t-53.5 129.5t-129.5 53.5t-129 -53.5t-53 -129.5z" />
<glyph unicode="&#xa5;" d="M23 1434h200l499 -677l505 677h184l-524 -703h260v-115h-340v-161h340v-115h-340v-340h-180v340h-340v115h340v161h-1h-339v115h255z" />
<glyph unicode="&#xa6;" horiz-adv-x="589" d="M207 266h176v-676h-176v676zM207 840v676h176v-676h-176z" />
<glyph unicode="&#xa7;" horiz-adv-x="1337" d="M156 588q0 80 50.5 153t143.5 132q-180 111 -180 262q0 136 143.5 223.5t364.5 87.5q134 0 265 -48.5t226 -131.5v-193q-85 106 -217 170t-274 64q-148 0 -244 -48.5t-96 -123.5q0 -148 346 -236q101 -25 186.5 -60t157.5 -81t113 -107t41 -129q0 -161 -195 -285 q180 -111 180 -262q0 -136 -143.5 -223.5t-364.5 -87.5q-134 0 -265 48.5t-226 131.5v193q85 -106 217 -170t274 -64q148 0 244 48.5t96 123.5q0 148 -346 236q-101 25 -186.5 60t-157 81t-112.5 107t-41 129zM324 608q0 -83 101.5 -147.5t266.5 -106.5q114 -29 202 -69 q120 96 120 217q0 56 -51.5 106t-131 85.5t-186.5 62.5q-112 29 -201 69q-120 -96 -120 -217z" />
<glyph unicode="&#xa8;" horiz-adv-x="876" d="M127 1315v160h176v-160h-176zM573 1315v160h177v-160h-177z" />
<glyph unicode="&#xa9;" horiz-adv-x="2273" d="M141 553q0 201 79 383.5t212.5 315t318 210.5t386.5 78t386.5 -78t317.5 -210.5t212 -315t79 -383.5t-79 -383.5t-212 -315t-317.5 -210.5t-386.5 -78t-386.5 78t-318 210.5t-212.5 315t-79 383.5zM281 553q0 -175 68 -334t182.5 -274.5t273 -183.5t332.5 -68t332.5 68 t273 183.5t182.5 274.5t68 334t-68 334t-182.5 274.5t-273 183.5t-332.5 68t-332.5 -68t-273 -183.5t-182.5 -274.5t-68 -334zM594 553q0 222 155.5 366t395.5 144q201 0 383 -102v-154q-186 117 -383 117q-165 0 -272 -105t-107 -266t107 -266t272 -105q197 0 383 117v-154 q-182 -102 -383 -102q-240 0 -395.5 144t-155.5 366z" />
<glyph unicode="&#xaa;" horiz-adv-x="1175" d="M106 754q0 109 85 179.5t215 70.5h195l236 -29v144q0 89 -72.5 152.5t-174.5 63.5q-95 0 -200.5 -28t-178.5 -65l-7 112q193 90 381 90q166 0 284 -95.5t118 -229.5v-626h-150v59q-172 -70 -343 -70q-160 0 -274 79.5t-114 192.5zM250 754q0 -61 71.5 -104.5t172.5 -43.5 q86 0 179 20.5t164 52.5v210h-431q-68 0 -112 -38t-44 -97z" />
<glyph unicode="&#xab;" horiz-adv-x="917" d="M68 554v2l277 335l108 -88l-205 -248l205 -251l-108 -88zM428 554v2l278 335l107 -88l-205 -248l205 -251l-108 -88z" />
<glyph unicode="&#xac;" horiz-adv-x="1347" d="M121 709v147h1059v-528h-148v381h-911z" />
<glyph unicode="&#xad;" horiz-adv-x="999" d="M121 545v147h840v-147h-840z" />
<glyph unicode="&#xae;" horiz-adv-x="2273" d="M141 553q0 201 79 383.5t212.5 315t318 210.5t386.5 78t386.5 -78t317.5 -210.5t212 -315t79 -383.5t-79 -383.5t-212 -315t-317.5 -210.5t-386.5 -78t-386.5 78t-318 210.5t-212.5 315t-79 383.5zM281 553q0 -175 68 -334t182.5 -274.5t273 -183.5t332.5 -68t332.5 68 t273 183.5t182.5 274.5t68 334t-68 334t-182.5 274.5t-273 183.5t-332.5 68t-332.5 -68t-273 -183.5t-182.5 -274.5t-68 -334zM717 47v1008h532q164 0 280 -95t116 -229q0 -133 -116 -227t-280 -94h-8l395 -363h-209l-376 363h-183v-363h-151zM868 537h381q101 0 172.5 57 t71.5 137t-71.5 137.5t-172.5 57.5h-381v-389z" />
<glyph unicode="&#xaf;" horiz-adv-x="753" d="M100 1331v123h553v-123h-553z" />
<glyph unicode="&#xb0;" horiz-adv-x="671" d="M84 1276q0 104 74 178t178 74t178 -74t74 -178t-74 -178t-178 -74t-178 74t-74 178zM197 1276q0 -59 40.5 -100t98.5 -41t98.5 41t40.5 100t-40.5 100t-98.5 41t-98.5 -41t-40.5 -100z" />
<glyph unicode="&#xb1;" horiz-adv-x="1314" d="M121 791v147h463v463h147v-463h463v-147h-463v-463h-147v463h-463zM174 0v147h967v-147h-967z" />
<glyph unicode="&#xb2;" horiz-adv-x="954" d="M117 664v57q0 49 12.5 93.5t29.5 78t49 67t57.5 55t69.5 49t69.5 41.5t72.5 38q113 59 167 104.5t54 104.5q0 65 -63 107t-162 42q-167 0 -330 -118v138q151 89 330 89q157 0 259 -72.5t102 -185.5q0 -47 -18 -88t-41.5 -69t-69 -59t-75.5 -47t-86 -44 q-126 -62 -197 -123t-87 -146h565v-112h-708z" />
<glyph unicode="&#xb3;" horiz-adv-x="968" d="M127 757v142q64 -61 155 -103t195 -42q97 0 159 47.5t62 120.5q0 72 -56.5 124t-137.5 52h-162v106h147q73 0 124 43.5t51 104.5q0 65 -54.5 107t-138.5 42q-151 0 -315 -89v125q144 71 301 71q147 0 243.5 -72t96.5 -184q0 -59 -35 -110t-90 -87q73 -39 116 -100 t43 -133q0 -121 -103 -199t-261 -78q-180 0 -340 112z" />
<glyph unicode="&#xb4;" horiz-adv-x="610" d="M106 1262l224 286h200l-268 -286h-156z" />
<glyph unicode="&#xb5;" horiz-adv-x="1378" d="M184 -143v1249h176v-758q0 -88 79.5 -150.5t191.5 -62.5q179 0 368 71v900h177v-1106h-164l-10 60q-190 -72 -367 -72q-186 0 -315 102l10 -233q6 -137 63 -252q-40 -15 -65 -15q-38 0 -67 22t-45 60.5t-24 84.5t-8 100z" />
<glyph unicode="&#xb6;" horiz-adv-x="1318" d="M96 1137q0 123 108.5 210t260.5 87h627v-1844h-148v1713h-295v-1713h-147v1250h-37q-152 0 -260.5 87t-108.5 210z" />
<glyph unicode="&#xb7;" horiz-adv-x="401" d="M106 623v188h189v-188h-189z" />
<glyph unicode="&#xb8;" horiz-adv-x="569" d="M123 -398l17 96q46 -11 81 -11q45 0 77.5 20.5t32.5 49.5q0 46 -45.5 78t-110.5 32l26 145l96 -12l-13 -78q72 -18 118.5 -64.5t46.5 -104.5q0 -67 -65 -115t-154 -48q-52 0 -107 12z" />
<glyph unicode="&#xb9;" horiz-adv-x="577" d="M106 1495v84l144 14h104v-934h-131v836h-117z" />
<glyph unicode="&#xba;" horiz-adv-x="1255" d="M123 964q0 130 67.5 240.5t184 175t253.5 64.5t253.5 -64.5t184 -175t67.5 -240.5t-67.5 -241t-184 -175.5t-253.5 -64.5t-253.5 64.5t-184 175.5t-67.5 241zM272 964q0 -147 104.5 -251.5t251.5 -104.5t251 104.5t104 251.5t-104 251t-251 104t-251.5 -104t-104.5 -251z " />
<glyph unicode="&#xbb;" horiz-adv-x="917" d="M104 304l205 249l-205 251l108 87l277 -337v-2l-277 -336zM465 304l205 249l-205 251l107 87l278 -337v-2l-278 -336z" />
<glyph unicode="&#xbf;" horiz-adv-x="927" d="M57 -102q0 179 222 357q96 77 146 139.5t52 140.5l4 161h148v-166q0 -175 -196 -334q-49 -40 -76.5 -65t-60.5 -63.5t-48 -80t-15 -89.5q0 -61 66.5 -100.5t167.5 -39.5q218 0 395 141v-173q-187 -115 -395 -115q-178 0 -294 81t-116 206zM473 946v160h176v-160h-176z " />
<glyph unicode="&#xc0;" horiz-adv-x="1519" d="M14 0l635 1434h238l618 -1434h-182l-171 397h-792l-176 -397h-170zM422 537h670l-331 765zM477 1855h201l223 -286h-156z" />
<glyph unicode="&#xc1;" horiz-adv-x="1519" d="M14 0l635 1434h238l618 -1434h-182l-171 397h-792l-176 -397h-170zM422 537h670l-331 765zM631 1569l223 286h201l-269 -286h-155z" />
<glyph unicode="&#xc2;" horiz-adv-x="1519" d="M14 0l635 1434h238l618 -1434h-182l-171 397h-792l-176 -397h-170zM422 537h670l-331 765zM430 1569l225 262h222l225 -262h-139l-197 186l-197 -186h-139z" />
<glyph unicode="&#xc3;" horiz-adv-x="1519" d="M14 0l635 1434h238l618 -1434h-182l-171 397h-792l-176 -397h-170zM422 537h670l-331 765zM457 1634v123q82 60 157 60q55 0 159 -47q102 -46 157 -46q70 0 145 58v-125q-83 -59 -156 -59q-58 0 -160 47q-104 47 -157 47q-70 0 -145 -58z" />
<glyph unicode="&#xc4;" horiz-adv-x="1519" d="M14 0l635 1434h238l618 -1434h-182l-171 397h-792l-176 -397h-170zM422 537h670l-331 765zM455 1622v160h176v-160h-176zM901 1622v160h176v-160h-176z" />
<glyph unicode="&#xc5;" horiz-adv-x="1542" d="M14 0l624 1409q-43 30 -68 77.5t-25 102.5q0 91 64.5 156t156.5 65t156.5 -65t64.5 -156q0 -54 -24 -101t-66 -77l608 -1411h-182l-171 397h-792l-176 -397h-170zM422 537h670l-331 765zM635 1589q0 -54 38.5 -92.5t92.5 -38.5t92.5 38.5t38.5 92.5t-38.5 92.5 t-92.5 38.5t-92.5 -38.5t-38.5 -92.5z" />
<glyph unicode="&#xc6;" horiz-adv-x="2164" d="M14 0l635 1434h1393v-152h-811v-487h688v-152h-688v-491h811v-152h-991v643h-582l-285 -643h-170zM535 793h516v489h-299z" />
<glyph unicode="&#xc7;" horiz-adv-x="1603" d="M158 717q0 209 100 375.5t277.5 260t400.5 93.5q159 0 309 -43.5t260 -122.5v-182q-101 93 -252.5 144.5t-316.5 51.5q-260 0 -429 -163t-169 -414t169 -414.5t429 -163.5q164 0 316 52t253 145v-183q-110 -79 -259.5 -122t-308.5 -43q-2 -11 -5.5 -33t-5.5 -33 q72 -18 118 -65t46 -105q0 -67 -64.5 -114.5t-153.5 -47.5q-52 0 -107 12l17 95q42 -10 81 -10q45 0 77.5 20.5t32.5 49.5q0 46 -45.5 78t-110.5 32l22 126q-302 30 -491.5 230.5t-189.5 493.5z" />
<glyph unicode="&#xc8;" horiz-adv-x="1458" d="M221 0v1434h1114v-152h-934v-487h811v-152h-811v-491h934v-152h-1114zM477 1835h201l223 -287h-156z" />
<glyph unicode="&#xc9;" horiz-adv-x="1458" d="M221 0v1434h1114v-152h-934v-487h811v-152h-811v-491h934v-152h-1114zM631 1548l223 287h201l-269 -287h-155z" />
<glyph unicode="&#xca;" horiz-adv-x="1458" d="M221 0v1434h1114v-152h-934v-487h811v-152h-811v-491h934v-152h-1114zM430 1548l225 262h222l225 -262h-139l-197 187l-197 -187h-139z" />
<glyph unicode="&#xcb;" horiz-adv-x="1458" d="M221 0v1434h1114v-152h-934v-487h811v-152h-811v-491h934v-152h-1114zM455 1602v159h176v-159h-176zM901 1602v159h176v-159h-176z" />
<glyph unicode="&#xcc;" horiz-adv-x="622" d="M23 1835h200l223 -287h-155zM221 0v1434h180v-1434h-180z" />
<glyph unicode="&#xcd;" horiz-adv-x="622" d="M176 1548l223 287h201l-268 -287h-156zM221 0v1434h180v-1434h-180z" />
<glyph unicode="&#xce;" horiz-adv-x="622" d="M-25 1548l226 262h221l225 -262h-139l-197 187l-196 -187h-140zM221 0v1434h180v-1434h-180z" />
<glyph unicode="&#xcf;" horiz-adv-x="622" d="M0 1602v159h176v-159h-176zM221 0v1434h180v-1434h-180zM446 1602v159h177v-159h-177z" />
<glyph unicode="&#xd0;" horiz-adv-x="1769" d="M162 631v139h172v664h577q154 0 294.5 -57t242 -153t161.5 -228.5t60 -278.5t-60 -278.5t-161.5 -228.5t-242 -153t-294.5 -57h-577v631h-172zM510 152h401q157 0 290 75.5t210.5 206t77.5 283.5t-77.5 283.5t-210.5 206t-290 75.5h-401v-512h356v-139h-356v-479z" />
<glyph unicode="&#xd1;" horiz-adv-x="1679" d="M221 0v1434h189l893 -1198v1198h155v-1434h-180l-901 1209v-1209h-156zM528 1614v123q80 59 158 59q55 0 159 -47q100 -45 156 -45q73 0 146 57v-125q-81 -58 -156 -58q-58 0 -160 47q-102 46 -157 46q-73 0 -146 -57z" />
<glyph unicode="&#xd2;" horiz-adv-x="1773" d="M129 717q0 148 60 283t161.5 232.5t242 155.5t294.5 58t294.5 -58t242 -155.5t161.5 -232.5t60 -283t-60 -283t-161.5 -232.5t-242 -155.5t-294.5 -58t-294.5 58t-242 155.5t-161.5 232.5t-60 283zM309 717q0 -157 77.5 -290t210.5 -210.5t290 -77.5t290 77.5t210 210.5 t77 290q0 118 -45.5 224.5t-123 184t-184 123t-224.5 45.5q-157 0 -290 -77t-210.5 -210t-77.5 -290zM598 1855h201l223 -286h-156z" />
<glyph unicode="&#xd3;" horiz-adv-x="1773" d="M129 717q0 148 60 283t161.5 232.5t242 155.5t294.5 58t294.5 -58t242 -155.5t161.5 -232.5t60 -283t-60 -283t-161.5 -232.5t-242 -155.5t-294.5 -58t-294.5 58t-242 155.5t-161.5 232.5t-60 283zM309 717q0 -157 77.5 -290t210.5 -210.5t290 -77.5t290 77.5t210 210.5 t77 290q0 118 -45.5 224.5t-123 184t-184 123t-224.5 45.5q-157 0 -290 -77t-210.5 -210t-77.5 -290zM752 1569l223 286h201l-269 -286h-155z" />
<glyph unicode="&#xd4;" horiz-adv-x="1773" d="M129 717q0 148 60 283t161.5 232.5t242 155.5t294.5 58t294.5 -58t242 -155.5t161.5 -232.5t60 -283t-60 -283t-161.5 -232.5t-242 -155.5t-294.5 -58t-294.5 58t-242 155.5t-161.5 232.5t-60 283zM309 717q0 -157 77.5 -290t210.5 -210.5t290 -77.5t290 77.5t210 210.5 t77 290q0 118 -45.5 224.5t-123 184t-184 123t-224.5 45.5q-157 0 -290 -77t-210.5 -210t-77.5 -290zM551 1569l225 262h221l226 -262h-140l-196 186l-197 -186h-139z" />
<glyph unicode="&#xd5;" horiz-adv-x="1773" d="M129 717q0 148 60 283t161.5 232.5t242 155.5t294.5 58t294.5 -58t242 -155.5t161.5 -232.5t60 -283t-60 -283t-161.5 -232.5t-242 -155.5t-294.5 -58t-294.5 58t-242 155.5t-161.5 232.5t-60 283zM309 717q0 -157 77.5 -290t210.5 -210.5t290 -77.5t290 77.5t210 210.5 t77 290q0 118 -45.5 224.5t-123 184t-184 123t-224.5 45.5q-157 0 -290 -77t-210.5 -210t-77.5 -290zM578 1634v123q82 60 157 60q55 0 159 -47q102 -46 157 -46q70 0 145 58v-125q-83 -59 -156 -59q-58 0 -160 47q-104 47 -157 47q-70 0 -145 -58z" />
<glyph unicode="&#xd6;" horiz-adv-x="1773" d="M129 717q0 148 60 283t161.5 232.5t242 155.5t294.5 58t294.5 -58t242 -155.5t161.5 -232.5t60 -283t-60 -283t-161.5 -232.5t-242 -155.5t-294.5 -58t-294.5 58t-242 155.5t-161.5 232.5t-60 283zM309 717q0 -157 77.5 -290t210.5 -210.5t290 -77.5t290 77.5t210 210.5 t77 290q0 118 -45.5 224.5t-123 184t-184 123t-224.5 45.5q-157 0 -290 -77t-210.5 -210t-77.5 -290zM575 1622v160h177v-160h-177zM1022 1622v160h176v-160h-176z" />
<glyph unicode="&#xd7;" horiz-adv-x="958" d="M120 446l255 254l-255 255l104 105l255 -255l255 255l104 -105l-254 -255l254 -254l-104 -105l-255 255l-255 -255z" />
<glyph unicode="&#xd8;" horiz-adv-x="1773" d="M129 717q0 148 60 283t161.5 232.5t242 155.5t294.5 58q232 0 423 -125l109 133h148l-166 -202q115 -102 179.5 -240.5t64.5 -294.5q0 -148 -60 -283t-161.5 -232.5t-242 -155.5t-294.5 -58q-234 0 -424 124l-109 -132h-147l166 201q-115 102 -179.5 241t-64.5 295z M309 717q0 -117 44.5 -222.5t124.5 -185.5l730 888q-144 97 -321 97q-157 0 -290 -77t-210.5 -210t-77.5 -290zM566 237q145 -98 321 -98q157 0 290 77.5t210 210.5t77 290q0 117 -44.5 222.5t-123.5 184.5z" />
<glyph unicode="&#xd9;" horiz-adv-x="1691" d="M174 627v807h180v-807q0 -132 66 -244.5t179.5 -178t246.5 -65.5t246.5 65.5t179 178t65.5 244.5v807h181v-807q0 -174 -90 -321t-245 -232.5t-337 -85.5t-337 85.5t-245 232.5t-90 321zM549 1835h201l223 -287h-156z" />
<glyph unicode="&#xda;" horiz-adv-x="1691" d="M174 627v807h180v-807q0 -132 66 -244.5t179.5 -178t246.5 -65.5t246.5 65.5t179 178t65.5 244.5v807h181v-807q0 -174 -90 -321t-245 -232.5t-337 -85.5t-337 85.5t-245 232.5t-90 321zM702 1548l224 287h200l-268 -287h-156z" />
<glyph unicode="&#xdb;" horiz-adv-x="1691" d="M174 627v807h180v-807q0 -132 66 -244.5t179.5 -178t246.5 -65.5t246.5 65.5t179 178t65.5 244.5v807h181v-807q0 -174 -90 -321t-245 -232.5t-337 -85.5t-337 85.5t-245 232.5t-90 321zM502 1548l225 262h221l226 -262h-140l-196 187l-197 -187h-139z" />
<glyph unicode="&#xdc;" horiz-adv-x="1691" d="M174 627v807h180v-807q0 -132 66 -244.5t179.5 -178t246.5 -65.5t246.5 65.5t179 178t65.5 244.5v807h181v-807q0 -174 -90 -321t-245 -232.5t-337 -85.5t-337 85.5t-245 232.5t-90 321zM526 1602v159h176v-159h-176zM973 1602v159h176v-159h-176z" />
<glyph unicode="&#xdd;" horiz-adv-x="1454" d="M10 1434h207l515 -699l521 699h191l-627 -841v-593h-180v585zM559 1548l223 287h201l-268 -287h-156z" />
<glyph unicode="&#xde;" horiz-adv-x="1611" d="M221 0v1434h180v-125h582q142 0 262 -63t190 -171.5t70 -236.5q0 -127 -70 -235t-190 -171t-262 -63h-582v-369h-180zM401 520h582q142 0 242 93.5t100 224.5q0 132 -100 225.5t-242 93.5h-582v-637z" />
<glyph unicode="&#xdf;" horiz-adv-x="1445" d="M190 0v1096q0 170 142 290.5t342 120.5q128 0 236.5 -47t171.5 -127.5t63 -175.5q0 -81 -44 -152.5t-120 -121.5q158 -42 259 -161t101 -269q0 -126 -76.5 -233.5t-208 -169.5t-286.5 -62q-116 0 -221 31v156q131 -40 235 -40q156 0 266.5 93.5t110.5 224.5 q0 136 -94.5 231.5t-228.5 95.5h-238v148h115q104 0 177 67t73 162q0 84 -85 143.5t-206 59.5q-127 0 -217 -77t-90 -187v-1096h-177z" />
<glyph unicode="&#xe0;" horiz-adv-x="1323" d="M102 307q0 128 100 211.5t253 83.5h230l278 -33v168q0 105 -85 179.5t-206 74.5q-112 0 -236.5 -32.5t-210.5 -76.5l-8 132q99 46 217.5 75t231.5 29q128 0 237 -51t172.5 -139t63.5 -191v-737h-176v70q-203 -82 -404 -82q-189 0 -323 93.5t-134 225.5zM270 307 q0 -71 85 -121.5t204 -50.5q101 0 211 24t193 61v247h-508q-80 0 -132.5 -45t-52.5 -115zM354 1548h201l223 -286h-155z" />
<glyph unicode="&#xe1;" horiz-adv-x="1323" d="M102 307q0 128 100 211.5t253 83.5h230l278 -33v168q0 105 -85 179.5t-206 74.5q-112 0 -236.5 -32.5t-210.5 -76.5l-8 132q99 46 217.5 75t231.5 29q128 0 237 -51t172.5 -139t63.5 -191v-737h-176v70q-203 -82 -404 -82q-189 0 -323 93.5t-134 225.5zM270 307 q0 -71 85 -121.5t204 -50.5q101 0 211 24t193 61v247h-508q-80 0 -132.5 -45t-52.5 -115zM508 1262l223 286h201l-268 -286h-156z" />
<glyph unicode="&#xe2;" horiz-adv-x="1323" d="M102 307q0 128 100 211.5t253 83.5h230l278 -33v168q0 105 -85 179.5t-206 74.5q-112 0 -236.5 -32.5t-210.5 -76.5l-8 132q99 46 217.5 75t231.5 29q128 0 237 -51t172.5 -139t63.5 -191v-737h-176v70q-203 -82 -404 -82q-189 0 -323 93.5t-134 225.5zM270 307 q0 -71 85 -121.5t204 -50.5q101 0 211 24t193 61v247h-508q-80 0 -132.5 -45t-52.5 -115zM307 1262l225 262h222l225 -262h-139l-197 186l-197 -186h-139z" />
<glyph unicode="&#xe3;" horiz-adv-x="1323" d="M102 307q0 128 100 211.5t253 83.5h230l278 -33v168q0 105 -85 179.5t-206 74.5q-112 0 -236.5 -32.5t-210.5 -76.5l-8 132q99 46 217.5 75t231.5 29q128 0 237 -51t172.5 -139t63.5 -191v-737h-176v70q-203 -82 -404 -82q-189 0 -323 93.5t-134 225.5zM270 307 q0 -71 85 -121.5t204 -50.5q101 0 211 24t193 61v247h-508q-80 0 -132.5 -45t-52.5 -115zM334 1327v123q80 59 157 59q57 0 159 -46t157 -46q70 0 145 58v-125q-83 -59 -156 -59q-58 0 -160 47q-104 47 -157 47q-70 0 -145 -58z" />
<glyph unicode="&#xe4;" horiz-adv-x="1323" d="M102 307q0 128 100 211.5t253 83.5h230l278 -33v168q0 105 -85 179.5t-206 74.5q-112 0 -236.5 -32.5t-210.5 -76.5l-8 132q99 46 217.5 75t231.5 29q128 0 237 -51t172.5 -139t63.5 -191v-737h-176v70q-203 -82 -404 -82q-189 0 -323 93.5t-134 225.5zM270 307 q0 -71 85 -121.5t204 -50.5q101 0 211 24t193 61v247h-508q-80 0 -132.5 -45t-52.5 -115zM332 1315v160h176v-160h-176zM778 1315v160h176v-160h-176z" />
<glyph unicode="&#xe5;" horiz-adv-x="1323" d="M102 307q0 128 100 211.5t253 83.5h230l278 -33v168q0 105 -85 179.5t-206 74.5q-112 0 -236.5 -32.5t-210.5 -76.5l-8 132q99 46 217.5 75t231.5 29q128 0 237 -51t172.5 -139t63.5 -191v-737h-176v70q-203 -82 -404 -82q-189 0 -323 93.5t-134 225.5zM270 307 q0 -71 85 -121.5t204 -50.5q101 0 211 24t193 61v247h-508q-80 0 -132.5 -45t-52.5 -115zM422 1389q0 91 65 156t156 65t156 -65t65 -156q0 -92 -65 -157t-156 -65t-156 65t-65 157zM512 1389q0 -54 38.5 -93t92.5 -39t92.5 39t38.5 93t-38.5 92.5t-92.5 38.5t-92.5 -38.5 t-38.5 -92.5z" />
<glyph unicode="&#xe6;" horiz-adv-x="2191" d="M104 307q0 135 108.5 230.5t260.5 95.5h483v104q0 97 -84 165.5t-202 68.5q-113 0 -240.5 -33t-212.5 -76l-8 152q98 46 219.5 75t235.5 29q142 0 255.5 -72.5t157.5 -187.5q74 119 195.5 189.5t263.5 70.5q146 0 263 -59.5t185 -170.5t68 -255v-72l-59 -59h-862 q18 -160 136 -263.5t279 -103.5q116 0 227.5 38t238.5 107v-159q-257 -133 -466 -133q-165 0 -301 90t-203 238q-68 -147 -212 -237.5t-321 -90.5q-168 0 -286.5 93.5t-118.5 225.5zM264 307q0 -71 77.5 -121.5t186.5 -50.5q168 0 291 106.5t136 260.5h-482 q-86 0 -147.5 -57.5t-61.5 -137.5zM1136 633h746q0 147 -97.5 242.5t-248.5 95.5q-147 0 -260 -96.5t-140 -241.5z" />
<glyph unicode="&#xe7;" horiz-adv-x="1306" d="M154 553q0 246 176.5 405.5t449.5 159.5q218 0 418 -111v-157q-200 127 -416 127q-197 0 -324.5 -119.5t-127.5 -304.5q0 -184 128.5 -304t325.5 -120q214 0 414 127v-157q-197 -109 -412 -111l-11 -66q72 -18 117.5 -65t45.5 -105q0 -67 -64 -114.5t-153 -47.5 q-37 0 -109 13l19 94q42 -10 81 -10q45 0 77 20.5t32 49.5q0 46 -45.5 78t-110.5 32l23 126q-238 28 -386 182.5t-148 377.5z" />
<glyph unicode="&#xe8;" horiz-adv-x="1404" d="M125 553q0 246 168 405.5t426 159.5q156 0 280.5 -59t194.5 -164t70 -236v-79l-54 -48h-909q8 -174 130.5 -285.5t307.5 -111.5q106 0 234 36.5t252 106.5v-157q-123 -63 -250.5 -98t-235.5 -35q-176 0 -316 72.5t-219 201.5t-79 291zM313 659h783q0 136 -106.5 224 t-270.5 88q-153 0 -263.5 -85.5t-142.5 -226.5zM416 1548h200l224 -286h-156z" />
<glyph unicode="&#xe9;" horiz-adv-x="1404" d="M125 553q0 246 168 405.5t426 159.5q156 0 280.5 -59t194.5 -164t70 -236v-79l-54 -48h-909q8 -174 130.5 -285.5t307.5 -111.5q106 0 234 36.5t252 106.5v-157q-123 -63 -250.5 -98t-235.5 -35q-176 0 -316 72.5t-219 201.5t-79 291zM313 659h783q0 136 -106.5 224 t-270.5 88q-153 0 -263.5 -85.5t-142.5 -226.5zM569 1262l224 286h200l-268 -286h-156z" />
<glyph unicode="&#xea;" horiz-adv-x="1404" d="M125 553q0 246 168 405.5t426 159.5q156 0 280.5 -59t194.5 -164t70 -236v-79l-54 -48h-909q8 -174 130.5 -285.5t307.5 -111.5q106 0 234 36.5t252 106.5v-157q-123 -63 -250.5 -98t-235.5 -35q-176 0 -316 72.5t-219 201.5t-79 291zM313 659h783q0 136 -106.5 224 t-270.5 88q-153 0 -263.5 -85.5t-142.5 -226.5zM369 1262l225 262h221l225 -262h-139l-196 186l-197 -186h-139z" />
<glyph unicode="&#xeb;" horiz-adv-x="1404" d="M125 553q0 246 168 405.5t426 159.5q156 0 280.5 -59t194.5 -164t70 -236v-79l-54 -48h-909q8 -174 130.5 -285.5t307.5 -111.5q106 0 234 36.5t252 106.5v-157q-123 -63 -250.5 -98t-235.5 -35q-176 0 -316 72.5t-219 201.5t-79 291zM313 659h783q0 136 -106.5 224 t-270.5 88q-153 0 -263.5 -85.5t-142.5 -226.5zM393 1315v160h176v-160h-176zM840 1315v160h176v-160h-176z" />
<glyph unicode="&#xec;" horiz-adv-x="581" d="M2 1548h201l223 -286h-156zM203 0v1106h176v-1106h-176z" />
<glyph unicode="&#xed;" horiz-adv-x="581" d="M156 1262l223 286h201l-269 -286h-155zM203 0v1106h176v-1106h-176z" />
<glyph unicode="&#xee;" horiz-adv-x="524" d="M-53 1262l215 262h200l216 -262h-129l-187 186l-186 -186h-129zM174 0v1106h176v-1106h-176z" />
<glyph unicode="&#xef;" horiz-adv-x="524" d="M-10 1315v160h176v-160h-176zM174 0v1106h176v-1106h-176zM358 1315v160h177v-160h-177z" />
<glyph unicode="&#xf0;" horiz-adv-x="1339" d="M90 512q0 140 75.5 258t205 187t282.5 69q129 0 246 -31q-71 107 -191 235l-139 -86l-60 97l118 74q-37 38 -114 113l156 44q28 -27 82 -81l157 98l60 -97l-136 -84q92 -98 160.5 -185.5t126.5 -187.5t88 -206.5t30 -216.5q0 -106 -45.5 -203t-122 -167.5t-182.5 -112 t-223 -41.5q-156 0 -288 70t-209 191t-77 263zM266 512q0 -156 117 -266.5t281 -110.5t280.5 110.5t116.5 266.5t-64 304q-159 63 -344 63q-160 0 -273.5 -107.5t-113.5 -259.5z" />
<glyph unicode="&#xf1;" horiz-adv-x="1388" d="M203 0v1106h170l5 -71q202 83 404 83q184 0 303 -101.5t119 -258.5v-758h-176v758q0 88 -71 150.5t-171 62.5t-210.5 -26t-196.5 -64v-881h-176zM365 1327v123q80 59 157 59q57 0 159 -46t157 -46q70 0 145 58v-125q-83 -59 -156 -59q-58 0 -160 47q-104 47 -157 47 q-70 0 -145 -58z" />
<glyph unicode="&#xf2;" d="M123 553q0 153 79.5 283.5t216.5 206t298 75.5t298 -75.5t216.5 -206t79.5 -283.5t-79.5 -283.5t-216.5 -206t-298 -75.5t-298 75.5t-216.5 206t-79.5 283.5zM299 553q0 -173 122.5 -295.5t295.5 -122.5t295.5 122.5t122.5 295.5t-122.5 295.5t-295.5 122.5 t-295.5 -122.5t-122.5 -295.5zM428 1548h201l223 -286h-156z" />
<glyph unicode="&#xf3;" d="M123 553q0 153 79.5 283.5t216.5 206t298 75.5t298 -75.5t216.5 -206t79.5 -283.5t-79.5 -283.5t-216.5 -206t-298 -75.5t-298 75.5t-216.5 206t-79.5 283.5zM299 553q0 -173 122.5 -295.5t295.5 -122.5t295.5 122.5t122.5 295.5t-122.5 295.5t-295.5 122.5 t-295.5 -122.5t-122.5 -295.5zM582 1262l223 286h201l-269 -286h-155z" />
<glyph unicode="&#xf4;" d="M123 553q0 153 79.5 283.5t216.5 206t298 75.5t298 -75.5t216.5 -206t79.5 -283.5t-79.5 -283.5t-216.5 -206t-298 -75.5t-298 75.5t-216.5 206t-79.5 283.5zM299 553q0 -173 122.5 -295.5t295.5 -122.5t295.5 122.5t122.5 295.5t-122.5 295.5t-295.5 122.5 t-295.5 -122.5t-122.5 -295.5zM381 1262l225 262h221l226 -262h-140l-196 186l-197 -186h-139z" />
<glyph unicode="&#xf5;" d="M123 553q0 153 79.5 283.5t216.5 206t298 75.5t298 -75.5t216.5 -206t79.5 -283.5t-79.5 -283.5t-216.5 -206t-298 -75.5t-298 75.5t-216.5 206t-79.5 283.5zM299 553q0 -173 122.5 -295.5t295.5 -122.5t295.5 122.5t122.5 295.5t-122.5 295.5t-295.5 122.5 t-295.5 -122.5t-122.5 -295.5zM408 1327v123q80 59 157 59q57 0 159 -46t157 -46q70 0 145 58v-125q-83 -59 -156 -59q-58 0 -160 47q-104 47 -157 47q-70 0 -145 -58z" />
<glyph unicode="&#xf6;" d="M123 553q0 153 79.5 283.5t216.5 206t298 75.5t298 -75.5t216.5 -206t79.5 -283.5t-79.5 -283.5t-216.5 -206t-298 -75.5t-298 75.5t-216.5 206t-79.5 283.5zM299 553q0 -173 122.5 -295.5t295.5 -122.5t295.5 122.5t122.5 295.5t-122.5 295.5t-295.5 122.5 t-295.5 -122.5t-122.5 -295.5zM406 1315v160h176v-160h-176zM852 1315v160h176v-160h-176z" />
<glyph unicode="&#xf7;" horiz-adv-x="1314" d="M119 627v147h1077v-147h-1077zM575 205v164h164v-164h-164zM575 1032v164h164v-164h-164z" />
<glyph unicode="&#xf8;" d="M123 553q0 153 79.5 283.5t216.5 206t298 75.5q177 0 323 -91l82 99h140l-136 -163q87 -79 136 -185t49 -225q0 -153 -79.5 -283.5t-216.5 -206t-298 -75.5q-177 0 -323 91l-83 -99h-139l136 163q-87 79 -136 185t-49 225zM299 553q0 -165 112 -285l529 638 q-103 65 -223 65q-173 0 -295.5 -122.5t-122.5 -295.5zM494 200q103 -65 223 -65q173 0 295.5 122.5t122.5 295.5q0 164 -113 285z" />
<glyph unicode="&#xf9;" horiz-adv-x="1378" d="M184 348v758h176v-758q0 -88 79.5 -150.5t191.5 -62.5q179 0 368 71v900h177v-1106h-164l-10 60q-190 -72 -367 -72q-187 0 -319 105.5t-132 254.5zM395 1548h201l223 -286h-155z" />
<glyph unicode="&#xfa;" horiz-adv-x="1378" d="M184 348v758h176v-758q0 -88 79.5 -150.5t191.5 -62.5q179 0 368 71v900h177v-1106h-164l-10 60q-190 -72 -367 -72q-187 0 -319 105.5t-132 254.5zM549 1262l223 286h201l-268 -286h-156z" />
<glyph unicode="&#xfb;" horiz-adv-x="1378" d="M184 348v758h176v-758q0 -88 79.5 -150.5t191.5 -62.5q179 0 368 71v900h177v-1106h-164l-10 60q-190 -72 -367 -72q-187 0 -319 105.5t-132 254.5zM348 1262l225 262h222l225 -262h-139l-197 186l-197 -186h-139z" />
<glyph unicode="&#xfc;" horiz-adv-x="1378" d="M184 348v758h176v-758q0 -88 79.5 -150.5t191.5 -62.5q179 0 368 71v900h177v-1106h-164l-10 60q-190 -72 -367 -72q-187 0 -319 105.5t-132 254.5zM373 1315v160h176v-160h-176zM819 1315v160h176v-160h-176z" />
<glyph unicode="&#xfd;" horiz-adv-x="1222" d="M18 1106h179l430 -954l405 954h166l-485 -1143q-37 -89 -37 -197q0 -96 33 -176h-166q-29 70 -29 174q0 120 33 199l48 113h-112zM467 1262l223 286h201l-268 -286h-156z" />
<glyph unicode="&#xfe;" horiz-adv-x="1445" d="M207 -410v1905h176v-441q180 64 346 64q258 0 426 -159.5t168 -405.5q0 -153 -81.5 -283.5t-218 -206t-294.5 -75.5q-195 0 -346 124v-522h-176zM383 293q62 -74 152.5 -116t193.5 -42q180 0 299 118.5t119 299.5t-118.5 299.5t-299.5 118.5q-169 0 -346 -63v-615z" />
<glyph unicode="&#xff;" horiz-adv-x="1222" d="M18 1106h179l430 -954l405 954h166l-485 -1143q-37 -89 -37 -197q0 -96 33 -176h-166q-29 70 -29 174q0 120 33 199l48 113h-112zM291 1315v160h176v-160h-176zM737 1315v160h176v-160h-176z" />
<glyph unicode="&#x152;" horiz-adv-x="2166" d="M129 717q0 146 60 278.5t161.5 228.5t242 153t294.5 57h1157v-152h-811v-487h688v-152h-688v-491h811v-152h-1157q-154 0 -294.5 57t-242 153t-161.5 228.5t-60 278.5zM309 717q0 -153 77.5 -283.5t210.5 -206t290 -75.5h166v1130h-166q-157 0 -290 -75.5t-210.5 -206 t-77.5 -283.5z" />
<glyph unicode="&#x153;" horiz-adv-x="2336" d="M123 553q0 115 45.5 219.5t122 180.5t182.5 120.5t223 44.5q156 0 287 -82.5t201 -218.5q70 136 200.5 218.5t286.5 82.5q143 0 264.5 -60t192 -164t70.5 -226v-88l-52 -56h-871q11 -163 131.5 -276t285.5 -113q217 0 465 140v-158q-255 -129 -465 -129q-163 0 -299 83 t-208 221q-70 -138 -201 -221t-288 -83q-117 0 -223 44.5t-182.5 120.5t-122 180.5t-45.5 219.5zM299 553q0 -173 116.5 -295.5t280.5 -122.5t281 122.5t117 295.5t-117 295.5t-281 122.5t-280.5 -122.5t-116.5 -295.5zM1289 668h745q0 125 -106.5 214t-256.5 89 q-134 0 -240 -85t-142 -218z" />
<glyph unicode="&#x178;" horiz-adv-x="1454" d="M10 1434h207l515 -699l521 699h191l-627 -841v-593h-180v585zM406 1602v159h176v-159h-176zM852 1602v159h176v-159h-176z" />
<glyph unicode="&#x2000;" horiz-adv-x="927" />
<glyph unicode="&#x2001;" horiz-adv-x="1855" />
<glyph unicode="&#x2002;" horiz-adv-x="927" />
<glyph unicode="&#x2003;" horiz-adv-x="1855" />
<glyph unicode="&#x2004;" horiz-adv-x="618" />
<glyph unicode="&#x2005;" horiz-adv-x="463" />
<glyph unicode="&#x2006;" horiz-adv-x="309" />
<glyph unicode="&#x2007;" horiz-adv-x="309" />
<glyph unicode="&#x2008;" horiz-adv-x="231" />
<glyph unicode="&#x2009;" horiz-adv-x="371" />
<glyph unicode="&#x200a;" horiz-adv-x="103" />
<glyph unicode="&#x2010;" horiz-adv-x="1081" d="M121 545v147h840v-147h-840z" />
<glyph unicode="&#x2011;" horiz-adv-x="1081" d="M121 545v147h840v-147h-840z" />
<glyph unicode="&#x2012;" horiz-adv-x="1081" d="M121 545v147h840v-147h-840z" />
<glyph unicode="&#x2013;" horiz-adv-x="1245" d="M100 545v147h1045v-147h-1045z" />
<glyph unicode="&#x2014;" horiz-adv-x="1941" d="M100 545v147h1741v-147h-1741z" />
<glyph unicode="&#x2018;" horiz-adv-x="411" d="M123 1176v167l65 246h88l-59 -225h72v-188h-166z" />
<glyph unicode="&#x2019;" horiz-adv-x="411" d="M123 1434v188h166v-168l-66 -246h-88l60 226h-72z" />
<glyph unicode="&#x201a;" horiz-adv-x="411" d="M123 0v188h166v-168l-66 -245h-88l60 225h-72z" />
<glyph unicode="&#x201c;" horiz-adv-x="647" d="M111 1176v167l65 246h88l-59 -225h71v-188h-165zM371 1176v167l65 246h88l-59 -225h72v-188h-166z" />
<glyph unicode="&#x201d;" horiz-adv-x="647" d="M111 1434v188h165v-168l-65 -246h-88l59 226h-71zM371 1434v188h166v-168l-66 -246h-88l59 226h-71z" />
<glyph unicode="&#x201e;" horiz-adv-x="647" d="M111 0v188h165v-168l-65 -245h-88l59 225h-71zM371 0v188h166v-168l-66 -245h-88l59 225h-71z" />
<glyph unicode="&#x2022;" horiz-adv-x="630" d="M90 553q0 93 66 159t159 66t159.5 -66t66.5 -159t-66.5 -159t-159.5 -66t-159 66t-66 159z" />
<glyph unicode="&#x2026;" horiz-adv-x="1007" d="M86 0v166h188v-166h-188zM410 0v166h188v-166h-188zM733 0v166h189v-166h-189z" />
<glyph unicode="&#x202f;" horiz-adv-x="371" />
<glyph unicode="&#x2039;" horiz-adv-x="573" d="M84 554v2l278 335l107 -88l-205 -248l205 -251l-108 -88z" />
<glyph unicode="&#x203a;" horiz-adv-x="573" d="M104 304l205 249l-205 251l108 87l277 -337v-2l-277 -336z" />
<glyph unicode="&#x205f;" horiz-adv-x="463" />
<glyph unicode="&#x20ac;" horiz-adv-x="1724" d="M82 479l24 119h153q-9 57 -9 119t9 119h-132l25 118h135q74 224 273.5 358t467.5 134q159 0 309 -43.5t260 -122.5v-182q-101 93 -252.5 144.5t-316.5 51.5q-191 0 -337.5 -92t-213.5 -248h610l-24 -118h-622q-11 -60 -11 -119t11 -119h601l-24 -119h-541 q67 -156 213.5 -248t337.5 -92q164 0 316 52t253 145v-183q-110 -79 -260 -122t-309 -43q-268 0 -467.5 134t-273.5 357h-205z" />
<glyph unicode="&#x2122;" horiz-adv-x="1935" d="M0 1305v129h733v-129h-299v-641h-135v641h-299zM864 664v770h117l358 -474l357 474h123v-770h-133v543l-346 -459l-349 455v-539h-127z" />
<glyph unicode="&#x25fc;" horiz-adv-x="1105" d="M0 0v1106h1106v-1106h-1106z" />
<glyph unicode="&#xfb01;" horiz-adv-x="1423" d="M66 903v129l204 8v189q0 121 104 199.5t265 78.5q142 0 266 -34v-154q-138 41 -270 41q-82 0 -135.5 -37t-53.5 -94v-189h424v-137h-424v-903h-176v903h-204zM1102 0v1106h176v-1106h-176zM1102 1315v180h176v-180h-176z" />
</font>
</defs>
</svg>
