<?xml version="1.0" standalone="no"?>
<!DOCTYPE svg PUBLIC "-//W3C//DTD SVG 1.1//EN" "http://www.w3.org/Graphics/SVG/1.1/DTD/svg11.dtd" >
<svg xmlns="http://www.w3.org/2000/svg">
<metadata></metadata>
<defs>
<font id="resamitzregular" horiz-adv-x="1376" >
<font-face units-per-em="2048" ascent="1638" descent="-410" />
<missing-glyph horiz-adv-x="737" />
<glyph horiz-adv-x="0" />
<glyph horiz-adv-x="682" />
<glyph unicode=" "  horiz-adv-x="737" />
<glyph unicode="&#x09;" horiz-adv-x="737" />
<glyph unicode="&#xa0;" horiz-adv-x="737" />
<glyph unicode="!" horiz-adv-x="524" d="M197 0v125h131v-125h-131zM203 1044v451h119v-451l-9 -634h-102z" />
<glyph unicode="&#x22;" horiz-adv-x="509" d="M78 1376v99h119v-99l-39 -246h-41zM313 1376v99h119v-99l-39 -246h-41z" />
<glyph unicode="#" horiz-adv-x="1167" d="M115 465v90h248l16 283h-244v90h249l17 299h86l-17 -299h254l17 299h86l-17 -299h243v-90h-248l-16 -283h243v-90h-249l-17 -299h-86l17 299h-254l-17 -299h-86l17 299h-242zM449 555h254l16 283h-254z" />
<glyph unicode="$" horiz-adv-x="1320" d="M111 250v162q79 -105 208 -171.5t277 -76.5v556q-49 13 -86.5 24.5t-85 29.5t-82 36.5t-70 45t-58 55.5t-36.5 67.5t-14 82.5q0 128 120.5 215t311.5 98v182h94v-181q233 -9 424 -136v-141q-175 161 -424 173v-458q62 -16 99 -26.5t98 -31.5t99 -40t84 -50t72 -64.5 t44 -79.5t18 -99q0 -151 -144 -252.5t-370 -111.5v-181h-94v182q-277 16 -485 191zM283 1061q0 -72 80 -124t233 -98v431q-139 -11 -226 -68t-87 -141zM690 163q175 9 285 81t110 178q0 51 -29 93t-86 74.5t-122.5 57t-157.5 49.5v-533z" />
<glyph unicode="%" horiz-adv-x="1515" d="M92 1135q0 129 91 220t220 91t220.5 -91t91.5 -220t-91.5 -219.5t-220.5 -90.5t-220 90.5t-91 219.5zM125 202l1191 1109l74 -79l-1191 -1109zM190 1135q0 -92 62.5 -156t150.5 -64t150.5 64t62.5 156t-62.5 156.5t-150.5 64.5t-150.5 -64.5t-62.5 -156.5zM801 297 q0 129 91 220t220 91t220 -91t91 -220t-91 -219t-220 -90t-220 90t-91 219zM899 297q0 -92 62.5 -155.5t150.5 -63.5t150.5 63.5t62.5 155.5t-62.5 156.5t-150.5 64.5t-150.5 -64.5t-62.5 -156.5z" />
<glyph unicode="&#x26;" horiz-adv-x="1525" d="M80 421q0 133 108 227.5t260 94.5q44 0 89 -15q-146 199 -146 378q0 125 90.5 214t218.5 89q122 0 208.5 -79.5t86.5 -192.5q0 -38 -29.5 -66t-72.5 -29v95q0 72 -56.5 123t-136.5 51q-84 0 -143 -60t-59 -145q0 -56 16 -112t38.5 -100.5t63.5 -99.5t73.5 -92t86.5 -94 l345 -370q87 71 135.5 165.5t48.5 198.5q0 79 -53 135t-128 56h-100q2 39 30.5 64.5t69.5 25.5q117 0 200 -82t83 -199q0 -126 -57 -239t-159 -199l6 -7q29 -31 51 -47t50 -16h141q0 -39 -28 -66.5t-68 -27.5h-53q-89 0 -172 88l-14 14q-187 -114 -418 -114 q-165 0 -304.5 58t-220.5 157.5t-81 217.5zM195 421q0 -137 144 -234t347 -97q191 0 347 88l-336 360q-106 111 -245 111q-107 0 -182 -67t-75 -161z" />
<glyph unicode="'" horiz-adv-x="294" d="M88 1376v99h119v-99l-39 -246h-41z" />
<glyph unicode="(" horiz-adv-x="583" d="M123 635q0 284 82.5 520t257.5 442h110q-171 -201 -249 -437.5t-78 -524.5q0 -579 327 -963h-110q-340 399 -340 963z" />
<glyph unicode=")" horiz-adv-x="583" d="M10 -328q172 202 250 438.5t78 524.5q0 577 -328 962h111q340 -399 340 -962q0 -284 -82.5 -521t-257.5 -442h-111z" />
<glyph unicode="*" horiz-adv-x="737" d="M82 1247l29 76l217 -78v230h82v-230l217 78l28 -76l-221 -80l137 -188l-65 -49l-137 188l-138 -188l-65 49l137 188z" />
<glyph unicode="+" horiz-adv-x="1257" d="M113 647v107h462v463h107v-463h463v-107h-463v-463h-107v463h-462z" />
<glyph unicode="," horiz-adv-x="344" d="M106 0v125h132v-105l-66 -245h-63l59 225h-62z" />
<glyph unicode="-" horiz-adv-x="1024" d="M113 565v107h798v-107h-798z" />
<glyph unicode="." horiz-adv-x="344" d="M106 0v125h132v-125h-132z" />
<glyph unicode="/" horiz-adv-x="1218" d="M35 -41l1020 1516h127l-1020 -1516h-127z" />
<glyph unicode="0" horiz-adv-x="1593" d="M129 717q0 209 86 375.5t238.5 260t343.5 93.5t343.5 -93.5t238 -260t85.5 -375.5t-85.5 -375.5t-238 -260t-343.5 -93.5t-343.5 93.5t-238.5 260t-86 375.5zM252 717q0 -269 154 -444t391 -175q156 0 280.5 79.5t194 221t69.5 318.5q0 269 -153.5 443.5t-390.5 174.5 t-391 -174.5t-154 -443.5z" />
<glyph unicode="1" horiz-adv-x="626" d="M96 1327v86l211 21h99v-1434h-119v1327h-191z" />
<glyph unicode="2" horiz-adv-x="1255" d="M111 0v82q0 49 7.5 95t24.5 86.5t35.5 76t48.5 69.5t56 61t66 56t69 49.5t75 47t74.5 42.5t76.5 41t73 39t66 38t63.5 40t53.5 39.5t47.5 44.5t33.5 46t24 52t7 56q0 119 -110 196.5t-279 77.5q-271 0 -471 -152v137q214 126 471 126q223 0 367.5 -109t144.5 -276 q0 -47 -13 -90.5t-32 -77t-54.5 -68t-65 -58t-81 -54.5t-85 -48.5t-92.5 -47.5q-49 -25 -76.5 -39t-73 -39.5t-72.5 -44t-65 -46.5t-60.5 -53t-49 -58t-41.5 -66.5t-26 -74.5t-14 -85h894v-111h-1017z" />
<glyph unicode="3" horiz-adv-x="1267" d="M119 145v136q84 -77 225.5 -132t282.5 -55q167 0 276 87t109 220q0 122 -97.5 208.5t-234.5 86.5h-227v111h206q124 0 211.5 75.5t87.5 182.5q0 119 -97.5 196.5t-248.5 77.5q-132 0 -236.5 -26t-211.5 -86v121q205 98 434 98q210 0 346.5 -107.5t136.5 -273.5 q0 -94 -62 -177.5t-162 -130.5q122 -47 200 -145t78 -211q0 -180 -148 -296.5t-375 -116.5q-130 0 -262 43t-231 114z" />
<glyph unicode="4" horiz-adv-x="1368" d="M125 295v33q38 112 94 209t137 214q58 83 93 139.5t73 135.5t56 160.5t18 171.5v76h123v-66q0 -80 -14.5 -156.5t-35 -134.5t-57.5 -126.5t-66.5 -113.5t-77.5 -114q-130 -184 -194 -326h732v607h118v-607h162v-102h-162v-295h-118v295h-881z" />
<glyph unicode="5" horiz-adv-x="1368" d="M147 145v138q84 -77 226 -133t282 -56q199 0 328 110.5t129 280.5q0 148 -125.5 253.5t-302.5 105.5q-266 0 -491 -121v711h958v-111h-848v-430q166 57 375 57q113 0 216 -37t178 -99t119 -148t44 -181q0 -143 -76.5 -256.5t-212 -177t-305.5 -63.5q-131 0 -263.5 43 t-230.5 114z" />
<glyph unicode="6" horiz-adv-x="1437" d="M129 717q0 148 49.5 283t133.5 232.5t200.5 155.5t243.5 58q257 0 471 -126v-137q-200 152 -471 152q-137 0 -253 -83t-183.5 -225t-67.5 -310v-2q238 219 526 219q147 0 272.5 -62t198 -169t72.5 -232q0 -131 -75.5 -242.5t-206 -176t-283.5 -64.5q-127 0 -243.5 58 t-200.5 155.5t-133.5 232.5t-49.5 283zM264 583q38 -212 175.5 -350.5t316.5 -138.5q185 0 315.5 110.5t130.5 266.5q0 97 -57 179t-154.5 129.5t-212.5 47.5q-143 0 -274 -63.5t-240 -180.5z" />
<glyph unicode="7" horiz-adv-x="1171" d="M51 1323v111h1079v-41q-25 -72 -72.5 -158t-86.5 -144.5t-110 -159.5q-68 -96 -103 -148t-89.5 -144t-82 -158.5t-49 -153.5t-21.5 -169v-158h-123v147q0 86 21.5 176t50 160t82.5 161t91 145t104 147q58 82 93 133t77.5 122.5t69.5 131.5h-931z" />
<glyph unicode="8" horiz-adv-x="1466" d="M109 412q0 126 94 234t239 156q-98 49 -158.5 133.5t-60.5 180.5q0 136 149.5 233t360.5 97t360.5 -97t149.5 -233q0 -96 -60.5 -180.5t-158.5 -133.5q146 -48 240 -156t94 -234q0 -184 -176.5 -304t-448.5 -120t-448 120t-176 304zM231 412q0 -138 142 -228t360 -90 t360 90t142 228q0 143 -142 237t-360 94t-360 -94t-142 -237zM346 1116q0 -119 109.5 -196.5t277.5 -77.5t277.5 77.5t109.5 196.5q0 92 -113.5 157.5t-273.5 65.5t-273.5 -65.5t-113.5 -157.5z" />
<glyph unicode="9" horiz-adv-x="1437" d="M117 963q0 131 75.5 242.5t206 176t283.5 64.5q179 0 322.5 -93.5t224 -260t80.5 -375.5q0 -148 -49.5 -283t-133.5 -232.5t-200.5 -155.5t-243.5 -58q-259 0 -471 125v138q201 -153 471 -153q137 0 253 83t183.5 225.5t67.5 310.5v2q-238 -219 -527 -219q-147 0 -272 62 t-197.5 168.5t-72.5 232.5zM236 963q0 -148 124 -252.5t299 -104.5q144 0 276 63t241 179q-34 220 -169 355.5t-325 135.5q-185 0 -315.5 -110t-130.5 -266z" />
<glyph unicode=":" horiz-adv-x="344" d="M106 0v125h132v-125h-132zM106 860v125h132v-125h-132z" />
<glyph unicode=";" horiz-adv-x="344" d="M106 0v125h132v-105l-66 -245h-63l59 225h-62zM106 860v125h132v-125h-132z" />
<glyph unicode="&#x3c;" horiz-adv-x="987" d="M55 674v86l819 414v-111l-688 -346l688 -346v-111z" />
<glyph unicode="=" horiz-adv-x="1146" d="M119 463v106h909v-106h-909zM119 831v107h909v-107h-909z" />
<glyph unicode="&#x3e;" horiz-adv-x="987" d="M113 260v111l688 346l-688 346v111l819 -414v-86z" />
<glyph unicode="?" horiz-adv-x="880" d="M33 1250v137q176 108 375 108q166 0 273 -81t107 -206q0 -99 -58 -184t-163 -169q-90 -72 -139 -138.5t-51 -145.5l-4 -161h-107v165q0 93 53.5 172.5t150.5 158.5q48 38 77 65t61 66t47 81t15 90q0 79 -74 130t-188 51q-214 0 -375 -139zM254 0v119h119v-119h-119z" />
<glyph unicode="@" horiz-adv-x="2193" d="M133 553q0 196 77 374t207 307t310 205.5t377 76.5q206 0 384.5 -70t305 -193t198.5 -296t72 -373q0 -137 -59 -253t-161 -183.5t-222 -67.5q-81 0 -146 35.5t-94 93.5q-134 -129 -317 -129q-129 0 -240 63t-177 172.5t-66 237.5q0 135 63.5 243.5t173.5 169t246 60.5 q186 0 383 -90v-1q32 0 66 23l-41 -664v-7q0 -47 43 -80.5t103 -33.5q136 0 231.5 120.5t95.5 290.5q0 237 -108 426.5t-300.5 296t-433.5 106.5q-139 0 -269 -43.5t-234.5 -123t-183.5 -185t-122 -237t-43 -271.5q0 -184 64.5 -344t176.5 -273t270.5 -178t340.5 -65 q398 0 645 233l63 -71q-291 -265 -708 -265q-208 0 -388.5 72.5t-308.5 199.5t-201 306t-73 385zM702 553q0 -157 105.5 -265t257.5 -108q91 0 169.5 42.5t132.5 118.5l30 511q-162 74 -332 74q-160 0 -261.5 -104t-101.5 -269z" />
<glyph unicode="A" horiz-adv-x="1462" d="M14 0l635 1434h180l619 -1434h-133l-180 418h-815l-185 -418h-121zM369 528h718l-354 821z" />
<glyph unicode="B" horiz-adv-x="1626" d="M221 0v1434h844q157 0 269 -108.5t112 -260.5q0 -100 -56 -183.5t-148 -128.5q107 -47 172 -142t65 -210q0 -166 -121.5 -283.5t-292.5 -117.5h-844zM344 111h721q121 0 206 84.5t85 205.5q0 122 -85 208.5t-206 86.5h-721v-585zM344 807h721q107 0 182.5 75.5 t75.5 182.5t-75.5 182.5t-182.5 75.5h-721v-516z" />
<glyph unicode="C" horiz-adv-x="1546" d="M129 717q0 156 56.5 292t155 231.5t238 150.5t300.5 55q331 0 548 -157v-142q-101 93 -242 140.5t-306 47.5q-272 0 -449.5 -174.5t-177.5 -443.5t177.5 -444t449.5 -175q165 0 306 48t242 141v-142q-217 -157 -548 -157q-161 0 -300.5 55t-238 150.5t-155 231.5 t-56.5 292z" />
<glyph unicode="D" horiz-adv-x="1628" d="M221 0v1434h549q148 0 283 -57t232.5 -153t155.5 -228.5t58 -278.5t-58 -278.5t-155.5 -228.5t-232.5 -153t-283 -57h-549zM344 111h426q123 0 235.5 48t193.5 129t129 193.5t48 235.5t-48 235.5t-129 193.5t-193.5 129t-235.5 48h-426v-1212z" />
<glyph unicode="E" horiz-adv-x="1400" d="M221 0v1434h1057v-111h-934v-549h811v-110h-811v-553h934v-111h-1057z" />
<glyph unicode="F" horiz-adv-x="1361" d="M221 0v1434h1055v-111h-932v-598h850v-111h-850v-614h-123z" />
<glyph unicode="G" horiz-adv-x="1636" d="M129 717q0 205 95 372t262 262t372 95q332 0 549 -157v-142q-101 93 -242.5 140.5t-306.5 47.5q-171 0 -309.5 -80.5t-217.5 -222t-79 -315.5t79 -316t217.5 -222.5t309.5 -80.5q141 0 270 42.5t230 119.5v391h-434v111h544v-554q-118 -104 -276 -162t-334 -58 q-205 0 -372 95t-262 262t-95 372z" />
<glyph unicode="H" horiz-adv-x="1622" d="M221 0v1434h123v-660h934v660h123v-1434h-123v664h-934v-664h-123z" />
<glyph unicode="I" horiz-adv-x="565" d="M221 0v1434h123v-1434h-123z" />
<glyph unicode="J" horiz-adv-x="1282" d="M98 106v132q199 -140 441 -140q189 0 311.5 111.5t122.5 282.5v835h-834v107h957v-942q0 -219 -157.5 -361.5t-399.5 -142.5q-235 0 -441 118z" />
<glyph unicode="K" horiz-adv-x="1452" d="M221 0v1434h123v-662h307l588 662h150l-620 -699l640 -735h-160l-580 666h-325v-666h-123z" />
<glyph unicode="L" horiz-adv-x="1280" d="M221 0v1434h123v-1323h885v-111h-1008z" />
<glyph unicode="M" horiz-adv-x="2142" d="M221 0v1434h123l723 -955l719 955h135v-1434h-123v1267l-734 -974l-732 966v-1259h-111z" />
<glyph unicode="N" horiz-adv-x="1622" d="M221 0v1434h103l966 -1237v1237h111v-1434h-94l-975 1247v-1247h-111z" />
<glyph unicode="O" horiz-adv-x="1716" d="M129 717q0 148 58 283t155.5 232.5t232.5 155.5t283 58t283 -58t232.5 -155.5t155.5 -232.5t58 -283t-58 -283t-155.5 -232.5t-232.5 -155.5t-283 -58t-283 58t-232.5 155.5t-155.5 232.5t-58 283zM252 717q0 -165 81 -307.5t221 -227t304 -84.5t304 84.5t221 227 t81 307.5t-81 307.5t-221 226.5t-304 84t-304 -84t-221 -226.5t-81 -307.5z" />
<glyph unicode="P" horiz-adv-x="1605" d="M221 0v1434h754q142 0 263 -68.5t191 -186.5t70 -257t-70 -257t-191 -186.5t-263 -68.5h-631v-410h-123zM344 520h631q166 0 283.5 117.5t117.5 284.5q0 166 -117 283.5t-284 117.5h-631v-803z" />
<glyph unicode="Q" horiz-adv-x="1718" d="M129 717q0 148 58 283t155.5 232.5t232.5 155.5t283 58t283 -58t232.5 -155.5t155.5 -232.5t58 -283q0 -182 -84 -339.5t-228 -258.5l263 -242h-164l-199 183q-147 -72 -317 -72q-148 0 -283 58t-232.5 155.5t-155.5 232.5t-58 283zM252 717q0 -165 81 -307.5t221 -227 t304 -84.5q116 0 227 46l-243 225v149l346 -318q127 85 201.5 222.5t74.5 294.5q0 165 -81 307.5t-221 226.5t-304 84t-304 -84t-221 -226.5t-81 -307.5z" />
<glyph unicode="R" horiz-adv-x="1626" d="M221 0v1434h795q200 0 341.5 -138t141.5 -333t-141.5 -333t-341.5 -138h-18l534 -492h-183l-514 492h-491v-492h-123zM344 602h672q149 0 254.5 106t105.5 255t-105.5 254.5t-254.5 105.5h-672v-721z" />
<glyph unicode="S" horiz-adv-x="1443" d="M119 201v164q105 -124 260.5 -195.5t333.5 -71.5q135 0 248 38.5t178 105.5t65 147q0 50 -26 92.5t-67 73.5t-108.5 59.5t-131.5 48.5t-156 44q-64 16 -103.5 27t-102.5 32.5t-103 41t-87 50.5t-74.5 64.5t-46 79.5t-18.5 98q0 150 150.5 247t382.5 99q288 0 512 -151 v-146q-98 88 -231 137t-281 49q-179 -2 -294.5 -67.5t-115.5 -167.5q0 -49 32 -90t95.5 -74.5t138.5 -59t181 -53.5q83 -21 130 -35t126.5 -41.5t126.5 -58t97 -73.5t73.5 -100t23.5 -126q0 -110 -80.5 -202t-222 -145.5t-311.5 -53.5q-169 0 -322 56t-272 157z" />
<glyph unicode="T" horiz-adv-x="1388" d="M43 1323v111h1303v-111h-590v-1323h-123v1323h-590z" />
<glyph unicode="U" horiz-adv-x="1634" d="M174 627v807h123v-807q0 -144 69.5 -265.5t189.5 -192.5t261 -71t261 71t189.5 192.5t69.5 265.5v807h123v-807q0 -130 -51 -248.5t-137 -204t-205 -136t-250 -50.5t-250 50.5t-205 136t-137 204t-51 248.5z" />
<glyph unicode="V" horiz-adv-x="1421" d="M4 1434h133l572 -1326l587 1326h121l-635 -1434h-159z" />
<glyph unicode="W" horiz-adv-x="2211" d="M12 1434h129l510 -1336l412 1264h113l396 -1262l509 1334h119l-547 -1434h-174l-366 1165l-380 -1165h-174z" />
<glyph unicode="X" horiz-adv-x="1355" d="M63 0l543 727l-522 707h152l445 -605l452 605h139l-521 -699l541 -735h-149l-468 633l-472 -633h-140z" />
<glyph unicode="Y" horiz-adv-x="1396" d="M10 1434h152l540 -732l545 732h139l-626 -841v-593h-123v585z" />
<glyph unicode="Z" horiz-adv-x="1331" d="M119 0v131l953 1192h-939v111h1075v-131l-952 -1192h963v-111h-1100z" />
<glyph unicode="[" horiz-adv-x="583" d="M207 -328v1925h321v-98h-211v-1728h211v-99h-321z" />
<glyph unicode="\" horiz-adv-x="1218" d="M35 1475h127l1020 -1516h-127z" />
<glyph unicode="]" horiz-adv-x="583" d="M55 -229h211v1728h-211v98h322v-1925h-322v99z" />
<glyph unicode="^" horiz-adv-x="860" d="M61 1085l287 349h164l287 -349h-103l-266 292l-266 -292h-103z" />
<glyph unicode="_" horiz-adv-x="1126" d="M57 -303h1012v-107h-1012v107z" />
<glyph unicode="`" horiz-adv-x="552" d="M102 1507h144l184 -245h-98z" />
<glyph unicode="a" horiz-adv-x="1265" d="M98 307q0 121 90.5 200t229.5 79h275l270 -27v178q0 113 -94 194t-226 81q-110 0 -231.5 -31t-206.5 -74l-8 111q214 100 440 100q120 0 222.5 -51t162 -139t59.5 -191v-737h-118v82q-210 -94 -433 -94q-179 0 -305.5 93.5t-126.5 225.5zM217 307q0 -88 91.5 -150.5 t221.5 -62.5q109 0 228.5 30t204.5 72v287h-545q-87 0 -144 -50t-57 -126z" />
<glyph unicode="b" horiz-adv-x="1382" d="M201 98v1397h118v-448q191 71 375 71q246 0 406 -159.5t160 -405.5q0 -153 -76 -283.5t-206.5 -206.5t-283.5 -76q-111 0 -229 28t-215 73q-22 10 -49 10zM319 171q191 -77 375 -77q121 0 224 61.5t163 167.5t60 230q0 199 -126.5 329t-320.5 130q-184 0 -375 -77v-764z " />
<glyph unicode="c" horiz-adv-x="1249" d="M125 553q0 246 165 405.5t421 159.5q201 0 401 -111v-124q-204 129 -401 129q-204 0 -335.5 -129.5t-131.5 -329.5t131.5 -329.5t335.5 -129.5q197 0 401 129v-124q-200 -111 -401 -111q-256 0 -421 159.5t-165 405.5z" />
<glyph unicode="d" horiz-adv-x="1388" d="M123 553q0 246 159.5 405.5t405.5 159.5q184 0 375 -71v448h119v-1495h-119v138q-160 -150 -375 -150q-153 0 -283 76t-206 206t-76 283zM242 553q0 -190 130.5 -324.5t315.5 -134.5q116 0 215.5 57t159.5 154v630q-191 77 -375 77q-194 0 -320 -129.5t-126 -329.5z" />
<glyph unicode="e" horiz-adv-x="1347" d="M125 553q0 248 156 406.5t409 158.5q228 0 376 -133t148 -338v-51l-51 -51h-919q3 -202 130.5 -326.5t336.5 -124.5q216 0 465 141v-122q-243 -125 -465 -125q-258 0 -422 159t-164 406zM251 647h845q0 158 -115 261.5t-291 103.5t-293.5 -100t-145.5 -265z" />
<glyph unicode="f" horiz-adv-x="899" d="M66 922v90l204 8v209q0 121 96 199.5t244 78.5q134 0 258 -34v-111q-142 39 -262 39q-94 0 -155.5 -48.5t-61.5 -123.5v-209h445v-98h-445v-922h-119v922h-204z" />
<glyph unicode="g" horiz-adv-x="1384" d="M123 563q0 159 72.5 286t201.5 198t291 71q181 0 376 -72l3 60h115v-1094q0 -115 -65 -212t-176.5 -153.5t-242.5 -56.5q-226 0 -442 101l8 111q85 -43 206.5 -74t231.5 -31q149 0 255 92.5t106 222.5v167q-160 -150 -375 -150q-153 0 -283.5 71.5t-206 194.5t-75.5 268z M242 563q0 -177 131 -302.5t315 -125.5q116 0 215.5 57t159.5 154v589q-191 77 -375 77q-194 0 -320 -127t-126 -322z" />
<glyph unicode="h" horiz-adv-x="1333" d="M205 0v1495h119v-460q200 83 403 83q184 0 303 -101.5t119 -258.5v-758h-119v758q0 110 -84.5 182t-214.5 72q-100 0 -210 -26.5t-197 -64.5v-921h-119z" />
<glyph unicode="i" horiz-adv-x="524" d="M203 0v1106h119v-1106h-119zM203 1315v139h119v-139h-119z" />
<glyph unicode="j" horiz-adv-x="567" d="M-197 -268q142 -39 263 -39q77 0 126.5 44t49.5 111v1270h118v-1270q0 -112 -84.5 -185t-214.5 -73t-258 35v107zM242 1315v139h118v-139h-118z" />
<glyph unicode="k" horiz-adv-x="1239" d="M207 0v1495h119v-889h251l445 500h145l-474 -535l497 -571h-156l-438 504h-270v-504h-119z" />
<glyph unicode="l" horiz-adv-x="532" d="M207 0v1495h119v-1495h-119z" />
<glyph unicode="m" horiz-adv-x="2013" d="M203 0v1106h114l4 -57q186 69 353 69q188 0 303 -110q241 110 450 110q175 0 288.5 -96t113.5 -244v-778h-119v778q0 101 -78.5 167.5t-199.5 66.5q-186 0 -391 -89q34 -66 34 -145v-778h-119v778q0 101 -78.5 167.5t-199.5 66.5q-163 0 -356 -75v-937h-119z" />
<glyph unicode="n" horiz-adv-x="1331" d="M203 0v1106h114l5 -71q200 83 403 83q184 0 303 -101.5t119 -258.5v-758h-119v758q0 110 -84.5 182t-214.5 72q-100 0 -210 -26.5t-197 -64.5v-921h-119z" />
<glyph unicode="o" d="M123 553q0 115 45 219.5t120.5 180t180 120.5t219.5 45t219.5 -45t180 -120.5t120.5 -180t45 -219.5t-45 -219.5t-120.5 -180t-180 -120.5t-219.5 -45t-219.5 45t-180 120.5t-120.5 180t-45 219.5zM242 553q0 -190 131 -324.5t315 -134.5q121 0 224 61.5t163 167.5 t60 230t-60 230t-163 167.5t-224 61.5q-184 0 -315 -134.5t-131 -324.5z" />
<glyph unicode="p" horiz-adv-x="1388" d="M207 -410v1516h115l3 -59q187 71 375 71q246 0 406 -159.5t160 -405.5q0 -153 -76 -283.5t-206.5 -206t-283.5 -75.5q-215 0 -374 149v-547h-119zM326 298q62 -93 160.5 -148.5t213.5 -55.5q121 0 224 61.5t163 167.5t60 230q0 199 -126.5 329t-320.5 130 q-183 0 -374 -77v-637z" />
<glyph unicode="q" horiz-adv-x="1388" d="M123 553q0 246 159.5 405.5t405.5 159.5q181 0 376 -72l3 60h115v-1516h-119v548q-160 -150 -375 -150q-153 0 -283 76t-206 206t-76 283zM242 553q0 -190 130.5 -324.5t315.5 -134.5q116 0 215.5 57t159.5 154v630q-191 77 -375 77q-194 0 -320 -129.5t-126 -329.5z" />
<glyph unicode="r" horiz-adv-x="950" d="M203 0v1106h110l8 -99q131 60 263.5 85.5t322.5 25.5l-16 -125q-64 11 -106 11q-239 0 -463 -111v-893h-119z" />
<glyph unicode="s" horiz-adv-x="1161" d="M100 163v165q82 -109 205.5 -171.5t265.5 -62.5q163 0 264 56t101 149q-1 45 -27 80.5t-79.5 63.5t-113 49t-147.5 43q-49 12 -80 21t-80 25.5t-80.5 32t-68.5 40.5t-59 52t-36.5 64t-14.5 80q0 117 119 192.5t302 75.5q222 0 398 -108v-137q-76 65 -179.5 102t-218.5 37 q-134 0 -218.5 -44.5t-84.5 -117.5q0 -66 83.5 -113.5t249.5 -91.5q42 -11 65.5 -17.5t67 -19.5t69.5 -24t64 -28.5t61.5 -35t50 -42t41.5 -50.5t25 -59t10 -70q0 -136 -135 -223.5t-349 -87.5q-270 0 -471 175z" />
<glyph unicode="t" horiz-adv-x="1026" d="M182 307v1055l119 20v-276h592v-102h-592v-697q0 -88 87.5 -150.5t211.5 -62.5q157 0 313 119v-129q-157 -96 -313 -96q-173 0 -295.5 93.5t-122.5 225.5z" />
<glyph unicode="u" horiz-adv-x="1320" d="M184 348v758h119v-758q0 -110 84.5 -182t214.5 -72q98 0 205 24.5t192 61.5v926h119v-1106h-114l-4 67q-197 -79 -394 -79q-184 0 -303 101.5t-119 258.5z" />
<glyph unicode="v" horiz-adv-x="1155" d="M18 1106h129l433 -1003l444 1003h117l-490 -1106h-155z" />
<glyph unicode="w" horiz-adv-x="1888" d="M16 1106h125l415 -1004l353 963h82l352 -963l416 1004h113l-459 -1106h-156l-313 868l-315 -868h-156z" />
<glyph unicode="x" horiz-adv-x="1075" d="M45 0l421 563l-403 543h148l329 -444l332 444h136l-401 -535l423 -571h-145l-351 473l-354 -473h-135z" />
<glyph unicode="y" horiz-adv-x="1165" d="M18 1106h129l452 -1001l425 1001h117l-486 -1143q-37 -89 -37 -197q0 -96 33 -176h-116q-30 72 -30 174q0 117 34 199l47 113h-103z" />
<glyph unicode="z" horiz-adv-x="1103" d="M106 0v127l755 872h-740v107h870v-127l-754 -873h764v-106h-895z" />
<glyph unicode="{" horiz-adv-x="706" d="M119 594v82q87 0 149 66t62 159v387q0 128 94 218.5t227 90.5v-98q-87 0 -149 -62t-62 -149v-387q0 -85 -45.5 -156t-120.5 -110q75 -39 120.5 -110t45.5 -156v-387q0 -87 62 -149t149 -62v-99q-133 0 -227 91t-94 219v387q0 93 -62 159t-149 66z" />
<glyph unicode="|" horiz-adv-x="528" d="M207 -410v1926h115v-1926h-115z" />
<glyph unicode="}" horiz-adv-x="706" d="M55 -229q87 0 149 62t62 149v387q0 85 45.5 156t121.5 110q-76 39 -121.5 110t-45.5 156v387q0 87 -62 149t-149 62v98q133 0 227.5 -90.5t94.5 -218.5v-387q0 -93 62 -159t149 -66v-82q-87 0 -149 -66t-62 -159v-387q0 -128 -94.5 -219t-227.5 -91v99z" />
<glyph unicode="~" horiz-adv-x="1024" d="M113 565v84q86 62 204 62q108 0 242 -49q113 -41 193 -41q94 0 159 51v-86q-85 -61 -201 -61q-107 0 -245 50q-110 40 -193 40q-95 0 -159 -50z" />
<glyph unicode="&#xa1;" horiz-adv-x="524" d="M197 981v125h131v-125h-131zM203 61l8 635h102l9 -635v-450h-119v450z" />
<glyph unicode="&#xa2;" horiz-adv-x="1239" d="M125 717q0 224 139.5 379t362.5 182v278h94v-274q197 -3 391 -111v-124q-198 125 -391 128v-917q191 3 391 129v-124q-194 -108 -391 -111v-275h-94v279q-223 27 -362.5 182t-139.5 379zM244 717q0 -178 105.5 -302.5t277.5 -150.5v905q-172 -26 -277.5 -150t-105.5 -302 z" />
<glyph unicode="&#xa3;" horiz-adv-x="1245" d="M43 0v78q100 23 166.5 95t66.5 161v354h-184v98h184v320q0 141 128.5 240.5t310.5 99.5q158 0 313 -96v-130q-154 119 -313 119q-131 0 -223.5 -68t-92.5 -165v-320h379v-98h-379v-354q0 -133 -123 -223h662q131 0 223 49v-99q-119 -61 -282 -61h-836z" />
<glyph unicode="&#xa4;" horiz-adv-x="921" d="M98 950l79 78l132 -133q59 41 152 41q86 0 155 -49l132 135l79 -77l-131 -135q45 -67 45 -153q0 -89 -43 -151l125 -127l-79 -78l-123 127q-73 -51 -160 -51t-154 45l-127 -125l-77 79l126 124q-49 69 -49 157q0 87 51 160zM279 657q0 -76 53 -129t129 -53t129 53t53 129 t-53 129.5t-129 53.5t-129 -53.5t-53 -129.5z" />
<glyph unicode="&#xa5;" d="M23 1434h151l517 -702l523 702h140l-540 -723h304v-95h-368v-161h368v-95h-368v-360h-123v360h-369v95h369l-1 161h-368v95h299z" />
<glyph unicode="&#xa6;" horiz-adv-x="532" d="M207 266h119v-676h-119v676zM207 840v676h119v-676h-119z" />
<glyph unicode="&#xa7;" horiz-adv-x="1280" d="M160 588q0 81 52 154.5t147 130.5q-199 109 -199 262q0 136 134.5 223.5t348.5 87.5q270 0 471 -175v-165q-82 108 -205.5 170.5t-265.5 62.5q-164 0 -264 -55.5t-100 -148.5q1 -60 54.5 -111.5t131 -85.5t181.5 -60q99 -25 182.5 -59t150.5 -78t105 -100.5t38 -118.5 q0 -81 -52 -154.5t-147 -130.5q199 -109 199 -262q0 -136 -134.5 -223.5t-348.5 -87.5q-270 0 -471 175v165q82 -108 205.5 -170.5t265.5 -62.5q164 0 264.5 55.5t100.5 148.5q-1 60 -54.5 111.5t-131.5 85.5t-182 60q-99 25 -182.5 59t-150.5 78t-105 100.5t-38 118.5z M279 598q0 -58 56.5 -110.5t140.5 -89t192 -64.5q100 -26 185 -63q151 104 151 241q0 58 -57 110.5t-141 89t-192 64.5q-100 26 -185 63q-150 -104 -150 -241z" />
<glyph unicode="&#xa8;" horiz-adv-x="819" d="M127 1315v119h119v-119h-119zM573 1315v119h119v-119h-119z" />
<glyph unicode="&#xa9;" horiz-adv-x="2215" d="M137 553q0 196 77 374t207 307t310 205.5t377 76.5t377 -76.5t310 -205.5t207 -307t77 -374t-77 -374t-207 -307t-310 -205.5t-377 -76.5t-377 76.5t-310 205.5t-207 307t-77 374zM252 553q0 -175 68 -334t182.5 -274.5t273 -183.5t332.5 -68t332.5 68t273 183.5 t182.5 274.5t68 334t-68 334t-182.5 274.5t-273 183.5t-332.5 68t-332.5 -68t-273 -183.5t-182.5 -274.5t-68 -334zM582 553q0 222 149.5 366t380.5 144q186 0 363 -100v-123q-180 116 -363 116q-177 0 -292 -114t-115 -289t115 -289t292 -114q183 0 363 116v-123 q-177 -100 -363 -100q-231 0 -380.5 144t-149.5 366z" />
<glyph unicode="&#xaa;" horiz-adv-x="1118" d="M98 754q0 103 76.5 169t195.5 66h234l229 -20v150q0 97 -79.5 165t-192.5 68q-94 0 -197.5 -26.5t-174.5 -62.5l-7 95q180 84 374 84q157 0 267.5 -94.5t110.5 -228.5v-626h-101v70q-185 -81 -367 -81q-152 0 -260 79.5t-108 192.5zM199 754q0 -75 78.5 -129t188.5 -54 q93 0 194 25.5t173 62.5v244h-463q-74 0 -122.5 -42t-48.5 -107z" />
<glyph unicode="&#xab;" horiz-adv-x="860" d="M76 553v4l252 305l75 -61l-202 -246l202 -248l-76 -62zM420 553v4l252 305l76 -61l-203 -246l203 -248l-76 -62z" />
<glyph unicode="&#xac;" horiz-adv-x="1290" d="M113 729v107h1017v-488h-106v381h-911z" />
<glyph unicode="&#xad;" horiz-adv-x="942" d="M113 565v107h798v-107h-798z" />
<glyph unicode="&#xae;" horiz-adv-x="2215" d="M137 553q0 196 77 374t207 307t310 205.5t377 76.5t377 -76.5t310 -205.5t207 -307t77 -374t-77 -374t-207 -307t-310 -205.5t-377 -76.5t-377 76.5t-310 205.5t-207 307t-77 374zM252 553q0 -175 68 -334t182.5 -274.5t273 -183.5t332.5 -68t332.5 68t273 183.5 t182.5 274.5t68 334t-68 334t-182.5 274.5t-273 183.5t-332.5 68t-332.5 -68t-273 -183.5t-182.5 -274.5t-68 -334zM709 47v1008h512q155 0 264.5 -95t109.5 -229q0 -133 -109.5 -227t-264.5 -94h-17l395 -363h-163l-377 363h-240v-363h-110zM819 508h402q109 0 186.5 65.5 t77.5 157.5t-77.5 157.5t-186.5 65.5h-402v-446z" />
<glyph unicode="&#xaf;" horiz-adv-x="696" d="M72 1331v94h553v-94h-553z" />
<glyph unicode="&#xb0;" horiz-adv-x="614" d="M76 1276q0 96 67.5 163.5t163.5 67.5t164 -67.5t68 -163.5t-68 -164t-164 -68t-163.5 68t-67.5 164zM168 1276q0 -59 40.5 -100t98.5 -41t98.5 41t40.5 100t-40.5 100t-98.5 41t-98.5 -41t-40.5 -100z" />
<glyph unicode="&#xb1;" horiz-adv-x="1257" d="M113 791v106h462v463h107v-463h463v-106h-463v-463h-107v463h-462zM166 0v106h926v-106h-926z" />
<glyph unicode="&#xb2;" horiz-adv-x="897" d="M102 664v53q0 47 11.5 90t29 76t47.5 66t56.5 55t68 48.5t69.5 42t72 38.5q47 25 72.5 39t61.5 38t53.5 43t31 45t13.5 54q0 76 -69 125t-175 49q-166 0 -313 -107v103q140 84 313 84q148 0 245 -72t97 -182q0 -44 -16.5 -83t-39 -66t-64.5 -56.5t-73 -46.5t-85 -44 q-53 -26 -86.5 -44.5t-77 -49t-70 -59.5t-47 -69.5t-24.5 -85.5h579v-84h-680z" />
<glyph unicode="&#xb3;" horiz-adv-x="911" d="M111 756v102q55 -54 148.5 -93.5t189.5 -39.5q105 0 172 55.5t67 141.5q0 76 -62.5 132t-148.5 56h-151v80h137q77 0 133.5 48.5t56.5 113.5q0 77 -59 126.5t-152 49.5q-143 0 -303 -86v95q137 67 289 67q141 0 232.5 -71t91.5 -181q0 -60 -37 -112t-98 -86 q76 -34 122.5 -96.5t46.5 -135.5q0 -119 -98.5 -196t-249.5 -77q-87 0 -173 29.5t-154 77.5z" />
<glyph unicode="&#xb4;" horiz-adv-x="552" d="M123 1262l184 245h144l-230 -245h-98z" />
<glyph unicode="&#xb5;" horiz-adv-x="1320" d="M184 -143v1249h119v-758q0 -110 84.5 -182t214.5 -72q98 0 205 24.5t192 61.5v926h119v-1106h-114l-4 67q-197 -79 -394 -79t-317 115l10 -246q6 -135 64 -252q-35 -15 -58 -15q-62 0 -91.5 74t-29.5 193z" />
<glyph unicode="&#xb6;" horiz-adv-x="1261" d="M96 1157q0 115 108.5 196t260.5 81h569v-1844h-106v1745h-320v-1745h-106v1291h-37q-153 0 -261 80.5t-108 195.5z" />
<glyph unicode="&#xb7;" horiz-adv-x="344" d="M106 651v131h132v-131h-132z" />
<glyph unicode="&#xb8;" horiz-adv-x="512" d="M110 -398l16 79q46 -11 73 -11q49 0 84 25.5t35 61.5q0 46 -45.5 78t-110.5 32l26 145l80 -12l-13 -80q65 -17 106.5 -63t41.5 -104q0 -67 -59.5 -115t-141.5 -48q-37 0 -92 12z" />
<glyph unicode="&#xb9;" horiz-adv-x="520" d="M96 1516v63l137 14h74v-934h-94v857h-117z" />
<glyph unicode="&#xba;" horiz-adv-x="1198" d="M119 964q0 130 64.5 240.5t175 175t240.5 64.5t240.5 -64.5t175 -175t64.5 -240.5t-64 -241t-175 -175.5t-241 -64.5t-241 64.5t-175 175.5t-64 241zM219 964q0 -161 111.5 -276t268.5 -115t268.5 115t111.5 276t-111.5 275.5t-268.5 114.5t-268.5 -114.5t-111.5 -275.5z " />
<glyph unicode="&#xbb;" horiz-adv-x="860" d="M113 307l202 246l-202 248l76 61l251 -307v-4l-252 -306zM457 307l202 246l-202 248l76 61l251 -307v-4l-251 -306z" />
<glyph unicode="&#xbf;" horiz-adv-x="870" d="M49 -102q0 99 58.5 184t163.5 169q90 72 139 138.5t51 145.5l4 161h106v-166q0 -93 -53 -172.5t-150 -157.5q-48 -38 -77 -65t-61 -66t-47 -81t-15 -90q0 -79 74 -130t188 -51q214 0 375 139v-137q-176 -108 -375 -108q-166 0 -273.5 81t-107.5 206zM465 987v119h119 v-119h-119z" />
<glyph unicode="&#xc0;" horiz-adv-x="1462" d="M14 0l635 1434h180l619 -1434h-133l-180 418h-815l-185 -418h-121zM369 528h718l-354 821zM516 1815h143l185 -246h-99z" />
<glyph unicode="&#xc1;" horiz-adv-x="1462" d="M14 0l635 1434h180l619 -1434h-133l-180 418h-815l-185 -418h-121zM369 528h718l-354 821zM631 1569l184 246h143l-229 -246h-98z" />
<glyph unicode="&#xc2;" horiz-adv-x="1462" d="M14 0l635 1434h180l619 -1434h-133l-180 418h-815l-185 -418h-121zM369 528h718l-354 821zM430 1569l225 246h164l225 -246h-98l-209 197l-209 -197h-98z" />
<glyph unicode="&#xc3;" horiz-adv-x="1462" d="M14 0l635 1434h180l619 -1434h-133l-180 418h-815l-185 -418h-121zM369 528h718l-354 821zM428 1634v95q80 59 157 59q60 0 162 -47q100 -45 154 -45q73 0 146 57v-96q-83 -59 -157 -59q-58 0 -162 48q-102 46 -155 46q-70 0 -145 -58z" />
<glyph unicode="&#xc4;" horiz-adv-x="1462" d="M14 0l635 1434h180l619 -1434h-133l-180 418h-815l-185 -418h-121zM369 528h718l-354 821zM455 1622v119h118v-119h-118zM901 1622v119h119v-119h-119z" />
<glyph unicode="&#xc5;" horiz-adv-x="1484" d="M14 0l626 1414q-47 26 -75 72.5t-28 102.5q0 83 58.5 142t141.5 59t142 -59t59 -142q0 -54 -27.5 -100.5t-73.5 -73.5l611 -1415h-133l-180 418h-815l-185 -418h-121zM369 528h718l-354 821zM606 1589q0 -54 38.5 -92.5t92.5 -38.5t92.5 38.5t38.5 92.5t-38.5 92.5 t-92.5 38.5t-92.5 -38.5t-38.5 -92.5z" />
<glyph unicode="&#xc6;" horiz-adv-x="2107" d="M14 0l635 1434h1336v-111h-811v-549h688v-110h-688v-553h811v-111h-934v664h-622l-294 -664h-121zM478 774h573v549h-330z" />
<glyph unicode="&#xc7;" horiz-adv-x="1546" d="M129 717q0 156 56.5 292t155 231.5t238 150.5t300.5 55q331 0 548 -157v-142q-101 93 -242 140.5t-306 47.5q-272 0 -449.5 -174.5t-177.5 -443.5t177.5 -444t449.5 -175q165 0 306 48t242 141v-142q-217 -157 -547 -157l-11 -69q65 -17 106 -63t41 -104 q0 -67 -59 -114.5t-142 -47.5q-36 0 -91 12l15 79q46 -11 73 -11q50 0 85 25.5t35 61.5q0 46 -45.5 78t-110.5 32l22 124q-146 13 -270 73t-212 154.5t-137.5 223.5t-49.5 275z" />
<glyph unicode="&#xc8;" horiz-adv-x="1400" d="M221 0v1434h1057v-111h-934v-549h811v-110h-811v-553h934v-111h-1057zM516 1794h143l185 -246h-99z" />
<glyph unicode="&#xc9;" horiz-adv-x="1400" d="M221 0v1434h1057v-111h-934v-549h811v-110h-811v-553h934v-111h-1057zM631 1548l184 246h143l-229 -246h-98z" />
<glyph unicode="&#xca;" horiz-adv-x="1400" d="M221 0v1434h1057v-111h-934v-549h811v-110h-811v-553h934v-111h-1057zM430 1548l225 246h164l225 -246h-98l-209 198l-209 -198h-98z" />
<glyph unicode="&#xcb;" horiz-adv-x="1400" d="M221 0v1434h1057v-111h-934v-549h811v-110h-811v-553h934v-111h-1057zM455 1602v118h118v-118h-118zM901 1602v118h119v-118h-119z" />
<glyph unicode="&#xcc;" horiz-adv-x="565" d="M61 1794h144l184 -246h-98zM221 0v1434h123v-1434h-123z" />
<glyph unicode="&#xcd;" horiz-adv-x="565" d="M176 1548l184 246h144l-230 -246h-98zM221 0v1434h123v-1434h-123z" />
<glyph unicode="&#xce;" horiz-adv-x="565" d="M-25 1548l226 246h164l225 -246h-98l-209 198l-209 -198h-99zM221 0v1434h123v-1434h-123z" />
<glyph unicode="&#xcf;" horiz-adv-x="565" d="M0 1602v118h119v-118h-119zM221 0v1434h123v-1434h-123zM446 1602v118h119v-118h-119z" />
<glyph unicode="&#xd0;" horiz-adv-x="1712" d="M113 651v99h192v684h549q148 0 283 -57t232.5 -153t155.5 -228.5t58 -278.5t-58 -278.5t-155.5 -228.5t-232.5 -153t-283 -57h-549v651h-192zM428 111h426q123 0 235.5 48t193.5 129t129 193.5t48 235.5t-48 235.5t-129 193.5t-193.5 129t-235.5 48h-426v-573h373v-99 h-373v-540z" />
<glyph unicode="&#xd1;" horiz-adv-x="1622" d="M221 0v1434h103l966 -1237v1237h111v-1434h-94l-975 1247v-1247h-111zM500 1614v94q80 59 157 59q60 0 162 -47q100 -45 154 -45q70 0 145 58v-97q-81 -58 -156 -58q-59 0 -163 48q-100 45 -154 45q-72 0 -145 -57z" />
<glyph unicode="&#xd2;" horiz-adv-x="1716" d="M129 717q0 148 58 283t155.5 232.5t232.5 155.5t283 58t283 -58t232.5 -155.5t155.5 -232.5t58 -283t-58 -283t-155.5 -232.5t-232.5 -155.5t-283 -58t-283 58t-232.5 155.5t-155.5 232.5t-58 283zM252 717q0 -165 81 -307.5t221 -227t304 -84.5t304 84.5t221 227 t81 307.5t-81 307.5t-221 226.5t-304 84t-304 -84t-221 -226.5t-81 -307.5zM637 1815h143l185 -246h-99z" />
<glyph unicode="&#xd3;" horiz-adv-x="1716" d="M129 717q0 148 58 283t155.5 232.5t232.5 155.5t283 58t283 -58t232.5 -155.5t155.5 -232.5t58 -283t-58 -283t-155.5 -232.5t-232.5 -155.5t-283 -58t-283 58t-232.5 155.5t-155.5 232.5t-58 283zM252 717q0 -165 81 -307.5t221 -227t304 -84.5t304 84.5t221 227 t81 307.5t-81 307.5t-221 226.5t-304 84t-304 -84t-221 -226.5t-81 -307.5zM752 1569l184 246h143l-229 -246h-98z" />
<glyph unicode="&#xd4;" horiz-adv-x="1716" d="M129 717q0 148 58 283t155.5 232.5t232.5 155.5t283 58t283 -58t232.5 -155.5t155.5 -232.5t58 -283t-58 -283t-155.5 -232.5t-232.5 -155.5t-283 -58t-283 58t-232.5 155.5t-155.5 232.5t-58 283zM252 717q0 -165 81 -307.5t221 -227t304 -84.5t304 84.5t221 227 t81 307.5t-81 307.5t-221 226.5t-304 84t-304 -84t-221 -226.5t-81 -307.5zM551 1569l225 246h164l225 -246h-98l-209 197l-209 -197h-98z" />
<glyph unicode="&#xd5;" horiz-adv-x="1716" d="M129 717q0 148 58 283t155.5 232.5t232.5 155.5t283 58t283 -58t232.5 -155.5t155.5 -232.5t58 -283t-58 -283t-155.5 -232.5t-232.5 -155.5t-283 -58t-283 58t-232.5 155.5t-155.5 232.5t-58 283zM252 717q0 -165 81 -307.5t221 -227t304 -84.5t304 84.5t221 227 t81 307.5t-81 307.5t-221 226.5t-304 84t-304 -84t-221 -226.5t-81 -307.5zM549 1634v95q80 59 157 59q60 0 162 -47q100 -45 154 -45q72 0 145 57v-96q-83 -59 -156 -59q-59 0 -163 48q-102 46 -154 46q-70 0 -145 -58z" />
<glyph unicode="&#xd6;" horiz-adv-x="1716" d="M129 717q0 148 58 283t155.5 232.5t232.5 155.5t283 58t283 -58t232.5 -155.5t155.5 -232.5t58 -283t-58 -283t-155.5 -232.5t-232.5 -155.5t-283 -58t-283 58t-232.5 155.5t-155.5 232.5t-58 283zM252 717q0 -165 81 -307.5t221 -227t304 -84.5t304 84.5t221 227 t81 307.5t-81 307.5t-221 226.5t-304 84t-304 -84t-221 -226.5t-81 -307.5zM575 1622v119h119v-119h-119zM1022 1622v119h119v-119h-119z" />
<glyph unicode="&#xd7;" horiz-adv-x="901" d="M120 446l255 254l-255 255l76 75l255 -254l254 254l75 -75l-254 -255l254 -254l-75 -76l-254 255l-255 -255z" />
<glyph unicode="&#xd8;" horiz-adv-x="1716" d="M129 717q0 148 58 283t155.5 232.5t232.5 155.5t283 58q234 0 423 -135l118 143h131l-171 -208q107 -102 167.5 -239t60.5 -290q0 -148 -58 -283t-155.5 -232.5t-232.5 -155.5t-283 -58q-234 0 -423 135l-118 -143h-131l171 207q-107 102 -167.5 239.5t-60.5 290.5z M252 717q0 -125 48 -238.5t133 -199.5l774 942q-157 114 -349 114q-164 0 -304 -84t-221 -226.5t-81 -307.5zM509 213q158 -115 349 -115q164 0 304 84.5t221 227t81 307.5q0 125 -47.5 238.5t-132.5 199.5z" />
<glyph unicode="&#xd9;" horiz-adv-x="1634" d="M174 627v807h123v-807q0 -144 69.5 -265.5t189.5 -192.5t261 -71t261 71t189.5 192.5t69.5 265.5v807h123v-807q0 -130 -51 -248.5t-137 -204t-205 -136t-250 -50.5t-250 50.5t-205 136t-137 204t-51 248.5zM588 1794h143l184 -246h-98z" />
<glyph unicode="&#xda;" horiz-adv-x="1634" d="M174 627v807h123v-807q0 -144 69.5 -265.5t189.5 -192.5t261 -71t261 71t189.5 192.5t69.5 265.5v807h123v-807q0 -130 -51 -248.5t-137 -204t-205 -136t-250 -50.5t-250 50.5t-205 136t-137 204t-51 248.5zM702 1548l185 246h143l-229 -246h-99z" />
<glyph unicode="&#xdb;" horiz-adv-x="1634" d="M174 627v807h123v-807q0 -144 69.5 -265.5t189.5 -192.5t261 -71t261 71t189.5 192.5t69.5 265.5v807h123v-807q0 -130 -51 -248.5t-137 -204t-205 -136t-250 -50.5t-250 50.5t-205 136t-137 204t-51 248.5zM502 1548l225 246h164l225 -246h-98l-209 198l-209 -198h-98z " />
<glyph unicode="&#xdc;" horiz-adv-x="1634" d="M174 627v807h123v-807q0 -144 69.5 -265.5t189.5 -192.5t261 -71t261 71t189.5 192.5t69.5 265.5v807h123v-807q0 -130 -51 -248.5t-137 -204t-205 -136t-250 -50.5t-250 50.5t-205 136t-137 204t-51 248.5zM526 1602v118h119v-118h-119zM973 1602v118h119v-118h-119z " />
<glyph unicode="&#xdd;" horiz-adv-x="1396" d="M10 1434h152l540 -732l545 732h139l-626 -841v-593h-123v585zM582 1548l184 246h143l-229 -246h-98z" />
<glyph unicode="&#xde;" horiz-adv-x="1554" d="M221 0v1434h123v-146h610q134 0 247.5 -60t180 -164t66.5 -226t-66.5 -226t-180 -164.5t-247.5 -60.5h-610v-387h-123zM344 498h610q154 0 262.5 99.5t108.5 240.5t-108.5 240.5t-262.5 99.5h-610v-680z" />
<glyph unicode="&#xdf;" horiz-adv-x="1388" d="M190 0v1096q0 170 133.5 290.5t321.5 120.5q184 0 313 -101t129 -249q0 -81 -46.5 -154t-125.5 -122q156 -36 262.5 -158t106.5 -270q0 -95 -42.5 -181t-115 -148t-173.5 -99t-212 -37q-107 0 -209 27v115q118 -36 224 -36q169 0 287 105t118 254q0 139 -106 243.5 t-246 104.5h-225v106h102q111 0 195 75.5t84 174.5q0 104 -93.5 174t-226.5 70q-139 0 -237.5 -89.5t-98.5 -215.5v-1096h-119z" />
<glyph unicode="&#xe0;" horiz-adv-x="1265" d="M98 307q0 121 90.5 200t229.5 79h275l270 -27v178q0 113 -94 194t-226 81q-110 0 -231.5 -31t-206.5 -74l-8 111q214 100 440 100q120 0 222.5 -51t162 -139t59.5 -191v-737h-118v82q-210 -94 -433 -94q-179 0 -305.5 93.5t-126.5 225.5zM217 307q0 -88 91.5 -150.5 t221.5 -62.5q109 0 228.5 30t204.5 72v287h-545q-87 0 -144 -50t-57 -126zM393 1507h144l184 -245h-98z" />
<glyph unicode="&#xe1;" horiz-adv-x="1265" d="M98 307q0 121 90.5 200t229.5 79h275l270 -27v178q0 113 -94 194t-226 81q-110 0 -231.5 -31t-206.5 -74l-8 111q214 100 440 100q120 0 222.5 -51t162 -139t59.5 -191v-737h-118v82q-210 -94 -433 -94q-179 0 -305.5 93.5t-126.5 225.5zM217 307q0 -88 91.5 -150.5 t221.5 -62.5q109 0 228.5 30t204.5 72v287h-545q-87 0 -144 -50t-57 -126zM508 1262l184 245h144l-230 -245h-98z" />
<glyph unicode="&#xe2;" horiz-adv-x="1265" d="M98 307q0 121 90.5 200t229.5 79h275l270 -27v178q0 113 -94 194t-226 81q-110 0 -231.5 -31t-206.5 -74l-8 111q214 100 440 100q120 0 222.5 -51t162 -139t59.5 -191v-737h-118v82q-210 -94 -433 -94q-179 0 -305.5 93.5t-126.5 225.5zM217 307q0 -88 91.5 -150.5 t221.5 -62.5q109 0 228.5 30t204.5 72v287h-545q-87 0 -144 -50t-57 -126zM307 1262l225 245h164l226 -245h-99l-209 197l-208 -197h-99z" />
<glyph unicode="&#xe3;" horiz-adv-x="1265" d="M98 307q0 121 90.5 200t229.5 79h275l270 -27v178q0 113 -94 194t-226 81q-110 0 -231.5 -31t-206.5 -74l-8 111q214 100 440 100q120 0 222.5 -51t162 -139t59.5 -191v-737h-118v82q-210 -94 -433 -94q-179 0 -305.5 93.5t-126.5 225.5zM217 307q0 -88 91.5 -150.5 t221.5 -62.5q109 0 228.5 30t204.5 72v287h-545q-87 0 -144 -50t-57 -126zM305 1327v94q82 60 157 60q60 0 162 -47q100 -45 154 -45q73 0 146 57v-96q-83 -59 -156 -59q-59 0 -163 48q-102 46 -155 46q-70 0 -145 -58z" />
<glyph unicode="&#xe4;" horiz-adv-x="1265" d="M98 307q0 121 90.5 200t229.5 79h275l270 -27v178q0 113 -94 194t-226 81q-110 0 -231.5 -31t-206.5 -74l-8 111q214 100 440 100q120 0 222.5 -51t162 -139t59.5 -191v-737h-118v82q-210 -94 -433 -94q-179 0 -305.5 93.5t-126.5 225.5zM217 307q0 -88 91.5 -150.5 t221.5 -62.5q109 0 228.5 30t204.5 72v287h-545q-87 0 -144 -50t-57 -126zM332 1315v119h119v-119h-119zM778 1315v119h119v-119h-119z" />
<glyph unicode="&#xe5;" horiz-adv-x="1265" d="M98 307q0 121 90.5 200t229.5 79h275l270 -27v178q0 113 -94 194t-226 81q-110 0 -231.5 -31t-206.5 -74l-8 111q214 100 440 100q120 0 222.5 -51t162 -139t59.5 -191v-737h-118v82q-210 -94 -433 -94q-179 0 -305.5 93.5t-126.5 225.5zM217 307q0 -88 91.5 -150.5 t221.5 -62.5q109 0 228.5 30t204.5 72v287h-545q-87 0 -144 -50t-57 -126zM414 1389q0 83 58.5 141.5t141.5 58.5t142 -58.5t59 -141.5t-59 -142t-142 -59t-141.5 59t-58.5 142zM483 1389q0 -54 38.5 -93t92.5 -39t92.5 39t38.5 93t-38.5 92.5t-92.5 38.5t-92.5 -38.5 t-38.5 -92.5z" />
<glyph unicode="&#xe6;" horiz-adv-x="2134" d="M98 307q0 128 99.5 216.5t240.5 88.5h525v125q0 113 -94 194t-226 81q-110 0 -231.5 -31t-206.5 -74l-8 111q214 100 440 100q142 0 255.5 -73t156.5 -188q75 120 196.5 190.5t261.5 70.5q215 0 354.5 -142t139.5 -360v-51l-51 -51h-877q14 -177 142 -298.5t303 -121.5 q114 0 218.5 35.5t226.5 105.5v-122q-120 -62 -225 -93.5t-220 -31.5q-165 0 -301 90t-203 237q-66 -147 -206.5 -237t-312.5 -90q-164 0 -280.5 93.5t-116.5 225.5zM217 307q0 -88 83.5 -150.5t201.5 -62.5q186 0 319 122.5t141 297.5h-524q-91 0 -156 -60.5t-65 -146.5z M1075 612l807 4q0 172 -106 284t-269 112q-162 0 -286.5 -115.5t-145.5 -284.5z" />
<glyph unicode="&#xe7;" horiz-adv-x="1249" d="M125 553q0 246 165 405.5t421 159.5q201 0 401 -111v-124q-204 129 -401 129q-204 0 -335.5 -129.5t-131.5 -329.5t131.5 -329.5t335.5 -129.5q197 0 401 129v-124q-194 -106 -384 -111l-11 -69q65 -17 106 -63t41 -104q0 -67 -58.5 -114.5t-141.5 -47.5q-37 0 -92 12 l16 79q46 -11 73 -11q49 0 84 25.5t35 61.5q0 46 -45.5 78t-110.5 32l22 124q-231 21 -376 176.5t-145 385.5z" />
<glyph unicode="&#xe8;" horiz-adv-x="1347" d="M125 553q0 248 156 406.5t409 158.5q228 0 376 -133t148 -338v-51l-51 -51h-919q3 -202 130.5 -326.5t336.5 -124.5q216 0 465 141v-122q-243 -125 -465 -125q-258 0 -422 159t-164 406zM251 647h845q0 158 -115 261.5t-291 103.5t-293.5 -100t-145.5 -265zM455 1507h143 l184 -245h-98z" />
<glyph unicode="&#xe9;" horiz-adv-x="1347" d="M125 553q0 248 156 406.5t409 158.5q228 0 376 -133t148 -338v-51l-51 -51h-919q3 -202 130.5 -326.5t336.5 -124.5q216 0 465 141v-122q-243 -125 -465 -125q-258 0 -422 159t-164 406zM251 647h845q0 158 -115 261.5t-291 103.5t-293.5 -100t-145.5 -265zM569 1262 l185 245h143l-229 -245h-99z" />
<glyph unicode="&#xea;" horiz-adv-x="1347" d="M125 553q0 248 156 406.5t409 158.5q228 0 376 -133t148 -338v-51l-51 -51h-919q3 -202 130.5 -326.5t336.5 -124.5q216 0 465 141v-122q-243 -125 -465 -125q-258 0 -422 159t-164 406zM251 647h845q0 158 -115 261.5t-291 103.5t-293.5 -100t-145.5 -265zM369 1262 l225 245h164l225 -245h-98l-209 197l-209 -197h-98z" />
<glyph unicode="&#xeb;" horiz-adv-x="1347" d="M125 553q0 248 156 406.5t409 158.5q228 0 376 -133t148 -338v-51l-51 -51h-919q3 -202 130.5 -326.5t336.5 -124.5q216 0 465 141v-122q-243 -125 -465 -125q-258 0 -422 159t-164 406zM251 647h845q0 158 -115 261.5t-291 103.5t-293.5 -100t-145.5 -265zM393 1315v119 h119v-119h-119zM840 1315v119h118v-119h-118z" />
<glyph unicode="&#xec;" horiz-adv-x="524" d="M41 1507h143l185 -245h-99zM203 0v1106h119v-1106h-119z" />
<glyph unicode="&#xed;" horiz-adv-x="524" d="M156 1262l184 245h143l-229 -245h-98zM203 0v1106h119v-1106h-119z" />
<glyph unicode="&#xee;" horiz-adv-x="524" d="M-25 1261l220 246h135l219 -246h-98l-189 187l-188 -187h-99zM203 0v1106h119v-1106h-119z" />
<glyph unicode="&#xef;" horiz-adv-x="524" d="M20 1315v119h119v-119h-119zM203 0v1106h119v-1106h-119zM385 1315v119h119v-119h-119z" />
<glyph unicode="&#xf0;" horiz-adv-x="1339" d="M119 512q0 140 71.5 258t194.5 187t268 69q138 0 270 -38q-84 120 -222 263l-144 -91l-48 77l128 79q-36 36 -112 110l115 34q30 -29 88 -87l153 96l48 -77l-136 -85q96 -99 164.5 -185t129 -186t91 -206.5t30.5 -217.5q0 -106 -43 -203t-116 -167.5t-173.5 -112 t-211.5 -41.5q-148 0 -273.5 70t-198.5 191t-73 263zM238 512q0 -173 125 -295.5t301 -122.5t301 122.5t125 295.5q0 172 -86 342q-164 66 -351 66q-172 0 -293.5 -119.5t-121.5 -288.5z" />
<glyph unicode="&#xf1;" horiz-adv-x="1331" d="M203 0v1106h114l5 -71q200 83 403 83q184 0 303 -101.5t119 -258.5v-758h-119v758q0 110 -84.5 182t-214.5 72q-100 0 -210 -26.5t-197 -64.5v-921h-119zM346 1327v94q82 60 157 60q60 0 162 -47q100 -45 154 -45q73 0 146 57v-96q-83 -59 -157 -59q-58 0 -162 48 q-102 46 -155 46q-70 0 -145 -58z" />
<glyph unicode="&#xf2;" d="M123 553q0 115 45 219.5t120.5 180t180 120.5t219.5 45t219.5 -45t180 -120.5t120.5 -180t45 -219.5t-45 -219.5t-120.5 -180t-180 -120.5t-219.5 -45t-219.5 45t-180 120.5t-120.5 180t-45 219.5zM242 553q0 -190 131 -324.5t315 -134.5q121 0 224 61.5t163 167.5 t60 230t-60 230t-163 167.5t-224 61.5q-184 0 -315 -134.5t-131 -324.5zM467 1507h143l185 -245h-99z" />
<glyph unicode="&#xf3;" d="M123 553q0 115 45 219.5t120.5 180t180 120.5t219.5 45t219.5 -45t180 -120.5t120.5 -180t45 -219.5t-45 -219.5t-120.5 -180t-180 -120.5t-219.5 -45t-219.5 45t-180 120.5t-120.5 180t-45 219.5zM242 553q0 -190 131 -324.5t315 -134.5q121 0 224 61.5t163 167.5 t60 230t-60 230t-163 167.5t-224 61.5q-184 0 -315 -134.5t-131 -324.5zM582 1262l184 245h143l-229 -245h-98z" />
<glyph unicode="&#xf4;" d="M123 553q0 115 45 219.5t120.5 180t180 120.5t219.5 45t219.5 -45t180 -120.5t120.5 -180t45 -219.5t-45 -219.5t-120.5 -180t-180 -120.5t-219.5 -45t-219.5 45t-180 120.5t-120.5 180t-45 219.5zM242 553q0 -190 131 -324.5t315 -134.5q121 0 224 61.5t163 167.5 t60 230t-60 230t-163 167.5t-224 61.5q-184 0 -315 -134.5t-131 -324.5zM381 1262l225 245h164l225 -245h-98l-209 197l-209 -197h-98z" />
<glyph unicode="&#xf5;" d="M123 553q0 115 45 219.5t120.5 180t180 120.5t219.5 45t219.5 -45t180 -120.5t120.5 -180t45 -219.5t-45 -219.5t-120.5 -180t-180 -120.5t-219.5 -45t-219.5 45t-180 120.5t-120.5 180t-45 219.5zM242 553q0 -190 131 -324.5t315 -134.5q121 0 224 61.5t163 167.5 t60 230t-60 230t-163 167.5t-224 61.5q-184 0 -315 -134.5t-131 -324.5zM379 1327v94q82 60 157 60q60 0 162 -47q100 -45 154 -45q72 0 145 57v-96q-83 -59 -156 -59q-59 0 -163 48q-102 46 -154 46q-70 0 -145 -58z" />
<glyph unicode="&#xf6;" d="M123 553q0 115 45 219.5t120.5 180t180 120.5t219.5 45t219.5 -45t180 -120.5t120.5 -180t45 -219.5t-45 -219.5t-120.5 -180t-180 -120.5t-219.5 -45t-219.5 45t-180 120.5t-120.5 180t-45 219.5zM242 553q0 -190 131 -324.5t315 -134.5q121 0 224 61.5t163 167.5 t60 230t-60 230t-163 167.5t-224 61.5q-184 0 -315 -134.5t-131 -324.5zM406 1315v119h118v-119h-118zM852 1315v119h119v-119h-119z" />
<glyph unicode="&#xf7;" horiz-adv-x="1257" d="M113 647v107h1032v-107h-1032zM567 246v123h123v-123h-123zM567 1032v123h123v-123h-123z" />
<glyph unicode="&#xf8;" d="M123 553q0 115 45 219.5t120.5 180t180 120.5t219.5 45q178 0 323 -101l91 109h123l-141 -170q80 -79 124.5 -182.5t44.5 -220.5q0 -115 -45 -219.5t-120.5 -180t-180 -120.5t-219.5 -45q-178 0 -323 101l-91 -109h-122l140 169q-80 79 -124.5 183t-44.5 221zM242 553 q0 -183 123 -316l575 694q-114 81 -252 81q-184 0 -315 -134.5t-131 -324.5zM436 174q113 -80 252 -80q121 0 224 61.5t163 167.5t60 230q0 183 -123 316z" />
<glyph unicode="&#xf9;" horiz-adv-x="1320" d="M184 348v758h119v-758q0 -110 84.5 -182t214.5 -72q98 0 205 24.5t192 61.5v926h119v-1106h-114l-4 67q-197 -79 -394 -79q-184 0 -303 101.5t-119 258.5zM434 1507h144l184 -245h-98z" />
<glyph unicode="&#xfa;" horiz-adv-x="1320" d="M184 348v758h119v-758q0 -110 84.5 -182t214.5 -72q98 0 205 24.5t192 61.5v926h119v-1106h-114l-4 67q-197 -79 -394 -79q-184 0 -303 101.5t-119 258.5zM549 1262l184 245h144l-230 -245h-98z" />
<glyph unicode="&#xfb;" horiz-adv-x="1320" d="M184 348v758h119v-758q0 -110 84.5 -182t214.5 -72q98 0 205 24.5t192 61.5v926h119v-1106h-114l-4 67q-197 -79 -394 -79q-184 0 -303 101.5t-119 258.5zM348 1262l225 245h164l226 -245h-99l-209 197l-209 -197h-98z" />
<glyph unicode="&#xfc;" horiz-adv-x="1320" d="M184 348v758h119v-758q0 -110 84.5 -182t214.5 -72q98 0 205 24.5t192 61.5v926h119v-1106h-114l-4 67q-197 -79 -394 -79q-184 0 -303 101.5t-119 258.5zM373 1315v119h119v-119h-119zM819 1315v119h119v-119h-119z" />
<glyph unicode="&#xfd;" horiz-adv-x="1165" d="M18 1106h129l452 -1001l425 1001h117l-486 -1143q-37 -89 -37 -197q0 -96 33 -176h-116q-30 72 -30 174q0 117 34 199l47 113h-103zM467 1262l184 245h144l-230 -245h-98z" />
<glyph unicode="&#xfe;" horiz-adv-x="1388" d="M207 -410v1905h115l3 -448q187 71 375 71q246 0 406 -159.5t160 -405.5q0 -153 -76 -283.5t-206.5 -206t-283.5 -75.5q-215 0 -374 149v-547h-119zM326 298q62 -93 160.5 -148.5t213.5 -55.5q121 0 224 61.5t163 167.5t60 230q0 199 -126.5 329t-320.5 130 q-183 0 -374 -77v-637z" />
<glyph unicode="&#xff;" horiz-adv-x="1165" d="M18 1106h129l452 -1001l425 1001h117l-486 -1143q-37 -89 -37 -197q0 -96 33 -176h-116q-30 72 -30 174q0 117 34 199l47 113h-103zM291 1315v119h119v-119h-119zM737 1315v119h119v-119h-119z" />
<glyph unicode="&#x152;" horiz-adv-x="2109" d="M129 717q0 146 58 278.5t155.5 228.5t232.5 153t283 57h1129v-111h-811v-549h688v-110h-688v-553h811v-111h-1129q-148 0 -283 57t-232.5 153t-155.5 228.5t-58 278.5zM252 717q0 -123 48 -235.5t129 -193.5t193.5 -129t235.5 -48h195v1212h-195q-123 0 -235.5 -48 t-193.5 -129t-129 -193.5t-48 -235.5z" />
<glyph unicode="&#x153;" horiz-adv-x="2279" d="M123 553q0 153 73 283.5t198.5 206t273.5 75.5q160 0 291.5 -91.5t195.5 -241.5q64 150 195.5 241.5t291.5 91.5q137 0 253 -63t183.5 -171.5t67.5 -236.5v-51l-51 -51h-878q3 -187 133 -319t313 -132q114 0 218.5 35.5t226.5 105.5v-122q-120 -62 -225 -93.5t-220 -31.5 q-167 0 -304 92.5t-203 242.5q-63 -150 -195 -242.5t-293 -92.5q-148 0 -273.5 75.5t-198.5 206t-73 283.5zM242 553q0 -190 125 -324.5t301 -134.5t301 134.5t125 324.5t-125 324.5t-301 134.5t-301 -134.5t-125 -324.5zM1226 647h802q0 151 -113 258t-273 107 q-152 0 -269 -104t-147 -261z" />
<glyph unicode="&#x178;" horiz-adv-x="1396" d="M10 1434h152l540 -732l545 732h139l-626 -841v-593h-123v585zM406 1602v118h118v-118h-118zM852 1602v118h119v-118h-119z" />
<glyph unicode="&#x2000;" horiz-adv-x="907" />
<glyph unicode="&#x2001;" horiz-adv-x="1815" />
<glyph unicode="&#x2002;" horiz-adv-x="907" />
<glyph unicode="&#x2003;" horiz-adv-x="1815" />
<glyph unicode="&#x2004;" horiz-adv-x="605" />
<glyph unicode="&#x2005;" horiz-adv-x="453" />
<glyph unicode="&#x2006;" horiz-adv-x="302" />
<glyph unicode="&#x2007;" horiz-adv-x="302" />
<glyph unicode="&#x2008;" horiz-adv-x="226" />
<glyph unicode="&#x2009;" horiz-adv-x="363" />
<glyph unicode="&#x200a;" horiz-adv-x="100" />
<glyph unicode="&#x2010;" horiz-adv-x="1024" d="M113 565v107h798v-107h-798z" />
<glyph unicode="&#x2011;" horiz-adv-x="1024" d="M113 565v107h798v-107h-798z" />
<glyph unicode="&#x2012;" horiz-adv-x="1024" d="M113 565v107h798v-107h-798z" />
<glyph unicode="&#x2013;" horiz-adv-x="1187" d="M92 565v107h1004v-107h-1004z" />
<glyph unicode="&#x2014;" horiz-adv-x="1884" d="M92 565v107h1700v-107h-1700z" />
<glyph unicode="&#x2018;" horiz-adv-x="354" d="M106 1208v135l66 246h64l-60 -225h72v-156h-142z" />
<glyph unicode="&#x2019;" horiz-adv-x="354" d="M106 1434v155h142v-135l-66 -246h-63l59 226h-72z" />
<glyph unicode="&#x201a;" horiz-adv-x="354" d="M106 0v156h142v-136l-66 -245h-63l59 225h-72z" />
<glyph unicode="&#x201c;" horiz-adv-x="589" d="M106 1208v135l66 246h64l-60 -225h72v-156h-142zM342 1208v135l66 246h63l-59 -225h71v-156h-141z" />
<glyph unicode="&#x201d;" horiz-adv-x="589" d="M106 1434v155h142v-135l-66 -246h-63l59 226h-72zM342 1434v155h141v-135l-65 -246h-64l60 226h-72z" />
<glyph unicode="&#x201e;" horiz-adv-x="589" d="M106 0v156h142v-136l-66 -245h-63l59 225h-72zM342 0v156h141v-136l-65 -245h-64l60 225h-72z" />
<glyph unicode="&#x2022;" horiz-adv-x="573" d="M82 553q0 85 60 145t145 60t145 -60t60 -145t-60 -145t-145 -60t-145 60t-60 145z" />
<glyph unicode="&#x2026;" horiz-adv-x="950" d="M106 0v125h132v-125h-132zM410 0v125h131v-125h-131zM713 0v125h131v-125h-131z" />
<glyph unicode="&#x202f;" horiz-adv-x="363" />
<glyph unicode="&#x2039;" horiz-adv-x="516" d="M76 553v4l252 305l75 -61l-202 -246l202 -248l-76 -62z" />
<glyph unicode="&#x203a;" horiz-adv-x="516" d="M113 307l202 246l-202 248l76 61l251 -307v-4l-252 -306z" />
<glyph unicode="&#x205f;" horiz-adv-x="453" />
<glyph unicode="&#x20ac;" horiz-adv-x="1667" d="M72 500l20 98h168q-8 51 -8 119t8 119h-147l20 98h149q67 232 260.5 372t458.5 140q332 0 549 -157v-142q-101 93 -242.5 140.5t-306.5 47.5q-213 0 -372 -109t-223 -292h649l-21 -98h-653q-10 -54 -10 -119t10 -119h633l-21 -98h-587q64 -184 223 -293t372 -109 q165 0 306.5 48t242.5 141v-142q-217 -157 -549 -157q-265 0 -458.5 140t-260.5 372h-210z" />
<glyph unicode="&#x2122;" horiz-adv-x="1935" d="M31 1337v97h706v-97h-303v-657h-102v657h-301zM866 680v754h92l367 -484l365 484h98v-754h-100v592l-363 -481l-364 477v-588h-95z" />
<glyph unicode="&#x25fc;" horiz-adv-x="1105" d="M0 0v1106h1106v-1106h-1106z" />
<glyph unicode="&#xfb01;" horiz-adv-x="1423" d="M66 922v90l204 8v209q0 121 96 199.5t244 78.5q134 0 258 -34v-111q-142 39 -262 39q-94 0 -155.5 -48.5t-61.5 -123.5v-209h445v-98h-445v-922h-119v922h-204zM1102 0v1106h119v-1106h-119zM1102 1315v139h119v-139h-119z" />
</font>
</defs>
</svg>
